[ Сегодня идет свободное скачивание без начисления Download ]


Статистика раздачи
Нет
 
   
 
Top  
 
 
-47 ронинов / 47 Ronin «This Christmas, seize eternity»- Год выпуска: 2013
Производство: США / H2F Entertainment
Жанр: Фэнтези, Боевик, Приключения
Перевод: Дублированный [Line]
Субтитры: Отсутствуют
Режиссер: Карл Ринш
Продюсер: Памела Эбди, Эрик МакЛеод, Крис Фентон
Актеры: Киану Ривз, Хироюки Санада, Ко Шибасаки, Таданобу Асано, Мин Танака, Джин Аканиши, Масаёси Ханеда, Хироси Согабэ, Такато Йонемото, Хироси Ямада
Описание фильма:
Таинственный странник, преданный всеми, проданный в рабство, избранный судьбой вершить месть, станет одним из 47 воинов, бросивших вызов смерти. Явившись из другого мира, он восстанет против темных сил, чтобы защитить свою запретную любовь.-
Дата мировой премьеры: 6 декабря 2013
Дата российской премьеры: 1 января 2014, «UPI»
Дата выхода DVD релиза: 24 апреля 2014, «Двадцатый Век Фокс СНГ»
Дата выхода BLU-RAY релиза: 24 апреля 2014, «Двадцатый Век Фокс СНГ»
Рейтинг MPAA: PG-13
Возраст: 12+-Продолжительность: 01:58:43
Качество видео: BDRip
Видеокодек: MPEG-4 AVC/H.264
Битрейт видео: ~13,3 Мбит/сек
Размер кадра: 1920x1080
Аудио 1: AC3 5.1, 448 kbps [Русский]*
Аудио 2: AC3 5.1, 448 kbps [Английский]

*

За русскую звуковую дорожку 5.1, большое спасибо нашему одноклубнику - WetY.
-

Media info:

Общее
Уникальный идентификатор : 233970053979077221642157050822239308466 (0xB004FE4939860BDC990D2E96E529CAB2)
Полное имя : F:\my films\47_RONIN_3D.mkv
Формат : Matroska
Версия формата : Version 2
Размер файла : 12,0 Гбайт
Продолжительность : 1 ч. 58 м.
Общий поток : 14,5 Мбит/сек
Название фильма : 47_RONIN_3D_Crop_O/U
Дата кодирования : UTC 2014-03-23 06:20:45
Программа кодирования : mkvmerge v5.7.0 ('The Whirlwind') built on Aug 7 2012 14:11:40
Библиотека кодирования : libebml v1.2.3 + libmatroska v1.3.0
Видео
Идентификатор : 1
Формат : AVC
Формат/Информация : Advanced Video Codec
Профиль формата : [email protected]
Параметр CABAC формата : Да
Параметр ReFrames формата : 4 кадра
Идентификатор кодека : V_MPEG4/ISO/AVC
Продолжительность : 1 ч. 58 м.
Битрейт : 13,3 Мбит/сек
Ширина : 1920 пикселей
Высота : 1080 пикселей
Соотношение сторон : 16:9
Режим частоты кадров : Постоянный
Частота кадров : 23,976 кадра/сек
Цветовое пространство : YUV
Субдискретизация насыщенности : 4:2:0
Битовая глубина : 8 бит
Тип развёртки : Прогрессивная
Бит/(Пиксели*Кадры) : 0.268
Размер потока : 11,0 Гбайт (92%)
Заголовок : rip by I/N
Библиотека кодирования : x264 core 128 r2216M 198a7ea
Настройки программы : cabac=1 / ref=4 / deblock=1:-3:-3 / analyse=0x3:0x133 / me=umh / subme=10 / psy=1 / psy_rd=1.00:0.15 / mixed_ref=1 / me_range=32 / chroma_me=1 / trellis=2 / 8x8dct=1 / cqm=0 / deadzone=21,11 / fast_pskip=1 / chroma_qp_offset=-3 / threads=8 / lookahead_threads=1 / sliced_threads=0 / nr=0 / decimate=1 / interlaced=0 / bluray_compat=0 / constrained_intra=0 / bframes=6 / b_pyramid=2 / b_adapt=2 / b_bias=0 / direct=3 / weightb=1 / open_gop=0 / weightp=2 / keyint=230 / keyint_min=23 / scenecut=40 / intra_refresh=0 / rc_lookahead=60 / rc=crf / mbtree=1 / crf=17.0 / qcomp=0.60 / qpmin=0 / qpmax=69 / qpstep=4 / vbv_maxrate=40000 / vbv_bufsize=30000 / crf_max=30.0 / nal_hrd=none / ip_ratio=1.40 / aq=1:1.00
Default : Да
Forced : Нет
Аудио #1
Идентификатор : 2
Формат : AC-3
Формат/Информация : Audio Coding 3
Расширение режима : CM (complete main)
Параметр Endianness формата : Big
Идентификатор кодека : A_AC3
Продолжительность : 1 ч. 58 м.
Вид битрейта : Постоянный
Битрейт : 448 Кбит/сек
Каналы : 6 каналов
Расположение каналов : Front: L C R, Side: L R, LFE
Частота : 48,0 КГц
Битовая глубина : 16 бит
Метод сжатия : С потерями
Размер потока : 380 Мбайт (3%)
Заголовок : Дубляж[Line]
Язык : Russian
Default : Да
Forced : Нет
Аудио #2
Идентификатор : 3
Формат : AC-3
Формат/Информация : Audio Coding 3
Расширение режима : CM (complete main)
Параметр Endianness формата : Big
Идентификатор кодека : A_AC3
Продолжительность : 1 ч. 58 м.
Вид битрейта : Постоянный
Битрейт : 448 Кбит/сек
Каналы : 6 каналов
Расположение каналов : Front: L C R, Side: L R, LFE
Частота : 48,0 КГц
Битовая глубина : 16 бит
Метод сжатия : С потерями
Размер потока : 380 Мбайт (3%)
Заголовок : Original
Язык : English
Default : Нет
Forced : Нет
Меню
00:00:00.000 : en:(01)00:00:00:000
00:04:27.558 : en:(02)00:04:27:558
00:11:12.088 : en:(03)00:11:12:088
00:16:27.820 : en:(04)00:16:27:820
00:20:11.835 : en:(05)00:20:11:835
00:26:52.319 : en:(06)00:26:52:319
00:31:02.944 : en:(07)00:31:02:944
00:36:10.626 : en:(08)00:36:10:626
00:43:36.614 : en:(09)00:43:36:614
00:50:14.511 : en:(10)00:50:14:511
00:54:59.421 : en:(11)00:54:59:421
00:59:54.048 : en:(12)00:59:54:048
01:09:57.735 : en:(13)01:09:57:735
01:13:59.017 : en:(14)01:13:59:017
01:19:12.247 : en:(15)01:19:12:247
01:24:17.385 : en:(16)01:24:17:385
01:33:00.825 : en:(17)01:33:00:825
01:38:55.554 : en:(18)01:38:55:554
01:44:41.608 : en:(19)01:44:41:608
01:48:38.303 : en:(20)01:48:38:303
01:58:42.949 : en:(21)01:58:42:949

Особенности релиза:

Справа и слева у видеоряда обрезано по 248р, что дает возможность просмотра на полный экран (без черных полос) на телевизорах с соотношением сторон 16:9 без изменения пропорций. На мой взгляд плюсы данных рипов- это более глубокое восприятие 3D-эффектов (конечно там где они есть) К минусам отнесу- вынужденное обрезание кадра по бокам. Так-что господа- выбор за вами! Всем приятного просмотра!
Проверено на встроенном плейере ТВ Samsung-D6500Скриншоты:

Время раздачи: 24/7 - круглосуточно до 10 скачавших

[Цитировать]



Показать сообщения:    

Текущее время: 06-Дек 06:01

Часовой пояс: UTC + 3


Вы не можете начинать темы
Вы не можете отвечать на сообщения
Вы не можете редактировать свои сообщения
Вы не можете удалять свои сообщения
Вы не можете голосовать в опросах
Вы не можете прикреплять файлы к сообщениям
Вы не можете скачивать файлы

!ВНИМАНИЕ!
Сайт не предоставляет электронные версии произведений, а занимается лишь коллекционированием и каталогизацией ссылок, присылаемых и публикуемых на форуме нашими читателями. Если вы являетесь правообладателем какого-либо представленного материала и не желаете, чтобы ссылка на него находилась в нашем каталоге, свяжитесь с нами, и мы незамедлительно удалим ее. Файлы для обмена на трекере предоставлены пользователями сайта, и администрация не несет ответственности за их содержание. Просьба не заливать файлы, защищенные авторскими правами, а также файлы нелегального содержания!