[ Сегодня идет свободное скачивание без начисления Download ]


Статистика раздачи
Нет
 
   
 
Top  
 
 
- ПосольССтво / AmbaSSada (2013) DVDRip- Страна: Польша
Год выпуска: 2013
Жанр: Комедия, фантастика, военный
Режиссер: Юлиуш Махульский
Продюсер: Юлиуш Махульский, Войцех Дановски, Анджей Стемповский
Актеры: Магдалена Гронжовска, Бартош Порчык, Роберт Венцкевич, Адам "Нергал" Дарский, Александра Доманска, Ян Энглерт, Кристиан Вечорек
Описание фильма:
Август 2012 года. В квартире дяди Оскара в старом варшавском доме на время поселяется молодая супружеская пара. Мелания — неудавшаяся актриса, способная лишь на дешевые розыгрыши в стиле «капустников», а Пшемек — зануда и ботан, который хочет стать писателем и автором исторических сенсаций. Вместо того, чтобы предаваться любовным утехам в просторной квартирке, странная парочка по ночам слышит необычные звуки за стеной и считает, что дом полон призраков.
Перевод: Любительский одноголосый, закадровый (Doctor Joker)
Субтитры: Вшитые не отключаемые на немецкую речь
Язык субтитров: Польский

Дата мировой премьеры: 18 октября 2013
Продолжительность: 01:40:54
Качество видео: DVDRip
Видеокодек: XVID
Битрейт видео: ~ 1478 Кбит/сек
Размер кадра: 720x384
Аудиокодек: AC-3, 6 ch
Битрейт аудио: 448 Кбит/сек
Сэмпл: Ссылка

MediaInfo

Общее
Полное имя                               : ПосольССтво. AmbaSSada 2013.avi
Формат                                   : AVI
Формат/Информация                        : Audio Video Interleave
Размер файла                             : 1,36 Гбайт
Продолжительность                        : 1 ч. 40 м.
Общий поток                              : 1936 Кбит/сек
Программа кодирования                    : VirtualDubMod 1.5.10.2 (build 2540/release)
Библиотека кодирования                   : VirtualDubMod build 2540/release
Видео
Идентификатор                            : 0
Формат                                   : MPEG-4 Visual
Профиль формата                          : Advanced Simple@L5
Параметр BVOP формата                    : 2
Параметр QPel формата                    : Нет
Параметр GMC формата                     : Без точки перехода
Параметр матрицы формата                 : Default (H.263)
Идентификатор кодека                     : XVID
Идентификатор кодека/Подсказка           : XviD
Продолжительность                        : 1 ч. 40 м.
Битрейт                                  : 1478 Кбит/сек
Ширина                                   : 720 пикселей
Высота                                   : 384 пикселя
Соотношение сторон                       : 1,85:1
Частота кадров                           : 25,000 кадров/сек
Цветовое пространство                    : YUV
Субдискретизация насыщенности            : 4:2:0
Битовая глубина                          : 8 бит
Тип развёртки                            : Прогрессивная
Метод сжатия                             : С потерями
Бит/(Пиксели*Кадры)                      : 0.214
Размер потока                            : 1,04 Гбайт (76%)
Библиотека кодирования                   : XviD 64
Аудио
Идентификатор                            : 1
Формат                                   : AC-3
Формат/Информация                        : Audio Coding 3
Расширение режима                        : CM (complete main)
Параметр Endianness формата              : Big
Идентификатор кодека                     : 2000
Продолжительность                        : 1 ч. 40 м.
Вид битрейта                             : Постоянный
Битрейт                                  : 448 Кбит/сек
Каналы                                   : 6 каналов
Расположение каналов                     : Front: L C R, Side: L R, LFE
Частота                                  : 48,0 КГц
Битовая глубина                          : 16 бит
Метод сжатия                             : С потерями
Размер потока                            : 323 Мбайт (23%)
Выравнивание                             : Разделение по промежуткам
Продолжительность промежутка             : 40  мс. (1,00 видеокадр)
Время предзагрузки промежутка            : 500  мс.
Скриншоты: Время раздачи:24/7

[Цитировать]



Показать сообщения:    

Текущее время: 10-Дек 15:49

Часовой пояс: UTC + 3


Вы не можете начинать темы
Вы не можете отвечать на сообщения
Вы не можете редактировать свои сообщения
Вы не можете удалять свои сообщения
Вы не можете голосовать в опросах
Вы не можете прикреплять файлы к сообщениям
Вы не можете скачивать файлы

!ВНИМАНИЕ!
Сайт не предоставляет электронные версии произведений, а занимается лишь коллекционированием и каталогизацией ссылок, присылаемых и публикуемых на форуме нашими читателями. Если вы являетесь правообладателем какого-либо представленного материала и не желаете, чтобы ссылка на него находилась в нашем каталоге, свяжитесь с нами, и мы незамедлительно удалим ее. Файлы для обмена на трекере предоставлены пользователями сайта, и администрация не несет ответственности за их содержание. Просьба не заливать файлы, защищенные авторскими правами, а также файлы нелегального содержания!