[ Сегодня идет свободное скачивание без начисления Download ]


Статистика раздачи
Нет
 
   
 
Top  
 
 
Варшавская битва 1920 года 3D / 1920 Bitwa Warszawska 3D
Год выпуска: 2011
Страна: Польша
Жанр: Драма, мелодрама, военный, история
Продолжительность: 01:55:27
Перевод: Одноголосый закадровый
Русские субтитры: нет
Режиссер на русском: Ежи Гоффман
Режиссер на английском: Jerzy Hoffman
В ролях: Даниэль Ольбрыхский, Михаил Жебровский, Наташа Урбаньска, Гражина Шаполовска, Богуслав Линда, Александр Домогаров, Борис Шиц, Войцех Пшоняк, Кшиштофор Глёбишь, Адам Ференцы, Ольга Кабо, Мариан Дзендзель, Станислава Целиньска, Эва Висьневска, Кшесимир Дембский, Лукаш Гарлицкий, Анджей Копичиньский, Рафал Цешински, Ежи Брашка, Иржи Бончак
Описание: Новый фильм Ежи Гоффмана посвящённый событиям советско-польской войны 1920-1921 гг. Это история о судьбах трех героев: молодой театральной актрисы Оли, её брата-поэта Яна и её жениха Анжея - улана польской армии. Действие фильма развивается на фоне Варшавской битвы, когда армии Западного фронта Тухачевского была разбиты под Варшавой. Ленту сняли за $9 млн. Моменты, описывающие советскую политику и войско, Гоффман брал с советской литературы. Это были записки писателя Исаака Бабеля, роман "Тихий Дон" Михаила Шолохова, воспоминания обычных участников военных действий.
Сэмпл
Качество: BDrip
Контейнер: MKV
Формат 3D: Half OverUnder / Вертикальная анаморфная стереопара
Порядок ракурсов: левый ракурс первый
Видео кодек: x264
Аудио кодек: AC3
Видео: AVC / 1920х1080p / 23,976 fps / 15.7 Mbps
Аудио#1: Русский / AC3 / 48 KHz / 5.1 ch / 448 Kbps
Аудио#2: Польский / AC3 / 48 KHz / 5.1 ch / 640 Kbps
Субтитры: отсутствуют

MediaInfo

General
Unique ID                        : 237471720587717531613403567833318440003 (0xB2A763C779B99EF7B8EA95A8E10C3C43)
Complete name                    : L:\_3D\3D-Films\Varshavskaya.bitva.1920.goda.3DBDrip.HalfOU.mkv
Format                           : Matroska
File size                        : 13.8 GiB
Duration                         : 1h 55mn
Overall bit rate                 : 17.2 Mbps
Encoded date                     : UTC 2012-02-24 19:28:16
Writing application              : mkvmerge v4.0.0 ('The Stars were mine') сборка от Jun  6 2010 16:18:42
Writing library                  : libebml v1.0.0 + libmatroska v1.0.0
Video
ID                               : 1
Format                           : AVC
Format/Info                      : Advanced Video Codec
Format profile                   : [email protected]
Format settings, CABAC           : Yes
Format settings, ReFrames        : 4 frames
Codec ID                         : V_MPEG4/ISO/AVC
Duration                         : 1h 55mn
Bit rate                         : 15.7 Mbps
Width                            : 1 920 pixels
Height                           : 1 080 pixels
Display aspect ratio             : 16:9
Frame rate                       : 23.976 fps
Color space                      : YUV
Chroma subsampling               : 4:2:0
Bit depth                        : 8 bits
Scan type                        : Progressive
Bits/(Pixel*Frame)               : 0.316
Stream size                      : 12.7 GiB (92%)
Writing library                  : x264 core 116 r2074 2641b9e
Encoding settings                : cabac=1 / ref=4 / deblock=1:-3:-3 / analyse=0x3:0x113 / me=umh / subme=9 / psy=1 / psy_rd=1.00:0.15 / mixed_ref=1 / me_range=16 / chroma_me=1 / trellis=2 / 8x8dct=1 / cqm=0 / deadzone=21,11 / fast_pskip=1 / chroma_qp_offset=-3 / threads=6 / sliced_threads=0 / nr=0 / decimate=1 / interlaced=0 / bluray_compat=0 / constrained_intra=0 / bframes=6 / b_pyramid=2 / b_adapt=2 / b_bias=0 / direct=3 / weightb=1 / open_gop=0 / weightp=2 / keyint=250 / keyint_min=23 / scenecut=40 / intra_refresh=0 / rc_lookahead=60 / rc=crf / mbtree=1 / crf=18.0 / qcomp=0.60 / qpmin=0 / qpmax=69 / qpstep=4 / vbv_maxrate=50000 / vbv_bufsize=50000 / crf_max=0.0 / nal_hrd=none / ip_ratio=1.40 / aq=1:0.70
Language                         : Polish
Audio #1
ID                               : 2
Format                           : AC-3
Format/Info                      : Audio Coding 3
Mode extension                   : CM (complete main)
Codec ID                         : A_AC3
Duration                         : 1h 55mn
Bit rate mode                    : Constant
Bit rate                         : 448 Kbps
Channel(s)                       : 6 channels
Channel positions                : Front: L C R, Side: L R, LFE
Sampling rate                    : 48.0 KHz
Bit depth                        : 16 bits
Compression mode                 : Lossy
Stream size                      : 370 MiB (3%)
Language                         : Russian
Audio #2
ID                               : 3
Format                           : AC-3
Format/Info                      : Audio Coding 3
Mode extension                   : CM (complete main)
Codec ID                         : A_AC3
Duration                         : 1h 55mn
Bit rate mode                    : Constant
Bit rate                         : 640 Kbps
Channel(s)                       : 6 channels
Channel positions                : Front: L C R, Side: L R, LFE
Sampling rate                    : 48.0 KHz
Bit depth                        : 16 bits
Compression mode                 : Lossy
Stream size                      : 529 MiB (4%)
Language                         : Polish

Лог x264:

Скриншоты


[Цитировать]



Показать сообщения:    

Текущее время: 05-Дек 19:31

Часовой пояс: UTC + 3


Вы не можете начинать темы
Вы не можете отвечать на сообщения
Вы не можете редактировать свои сообщения
Вы не можете удалять свои сообщения
Вы не можете голосовать в опросах
Вы не можете прикреплять файлы к сообщениям
Вы не можете скачивать файлы

!ВНИМАНИЕ!
Сайт не предоставляет электронные версии произведений, а занимается лишь коллекционированием и каталогизацией ссылок, присылаемых и публикуемых на форуме нашими читателями. Если вы являетесь правообладателем какого-либо представленного материала и не желаете, чтобы ссылка на него находилась в нашем каталоге, свяжитесь с нами, и мы незамедлительно удалим ее. Файлы для обмена на трекере предоставлены пользователями сайта, и администрация не несет ответственности за их содержание. Просьба не заливать файлы, защищенные авторскими правами, а также файлы нелегального содержания!