[ Сегодня идет свободное скачивание без начисления Download ]


Статистика раздачи
Нет
 
   
 
Top  
 
 
-Совместная поездка / Ride Along (2014) HDRip- Год выпуска: 2014
Производство: США, Cube Vision, LBI Entertainment, Rainforest Films, Universal Pictures
Жанр: Боевик, Комедия
Перевод: Многоголосый закадровый, профессиональный (BaiBako)
Субтитры: Отсутствуют
Дата мировой премьеры: 17 января 2014
Дата украинской премьеры: 10 апреля 2014, «B&H Film Distribution Company
Режиссер: Тим Стори
Продюсер: Мэтт Альварес, Ларри Брэзнер, Айс Кьюб
Актеры: Айс Кьюб, Кевин Харт, Джон Легуизамо, Брюс МакГилл, Тика Самптер, Брайан Коллен, Лоренс Фишбёрн, Драгош Букур, Гари Оуэн, Джейкоб Латимор
Описание фильма:
Охранник Бен отправляется вместе со своим шурином Джеймсом в патруль по Атланте, чтобы доказать, что он достоин жениться на Анджеле, сестре Джеймса.

Рейтинг MPAA: PG-13
Продолжительность: 01:39:39
Качество видео: HDRip
Видеокодек: XviD
Битрейт видео: 1700 kb/s
Размер кадра: 720x304
Аудиокодек: AC3 5.1
Битрейт аудио: 384 kb/s

Награды

Премия канала «MTV», 2014 год
Номинации (2):
  • Лучшая комедийная роль (Кевин Харт)
  • Лучший экранный дуэт

MI

Общее
Полное имя                               : D:\Раздачи\Sovmestnaya.Poezdka.2014.HDRip.NNM-CLUB.avi
Формат                                   : AVI
Формат/Информация                        : Audio Video Interleave
Размер файла                             : 1,46 Гбайт
Продолжительность                        : 1 ч. 39 м.
Общий поток                              : 2093 Кбит/сек
Программа кодирования                    : VirtualDubMod 1.5.10.2 (build 2540/release)
Библиотека кодирования                   : VirtualDubMod build 2540/release
Видео
Идентификатор                            : 0
Формат                                   : MPEG-4 Visual
Профиль формата                          : Advanced [email protected]
Параметр BVOP формата                    : 2
Параметр QPel формата                    : Нет
Параметр GMC формата                     : Без точки перехода
Параметр матрицы формата                 : Выборочная
Идентификатор кодека                     : XVID
Идентификатор кодека/Подсказка           : XviD
Продолжительность                        : 1 ч. 39 м.
Битрейт                                  : 1700 Кбит/сек
Ширина                                   : 720 пикселей
Высота                                   : 304 пикселя
Соотношение сторон                       : 2,35:1
Частота кадров                           : 23,976 кадра/сек
Цветовое пространство                    : YUV
Субдискретизация насыщенности            : 4:2:0
Битовая глубина                          : 8 бит
Тип развёртки                            : Прогрессивная
Метод сжатия                             : С потерями
Бит/(Пиксели*Кадры)                      : 0.324
Размер потока                            : 1,18 Гбайт (81%)
Библиотека кодирования                   : XviD 1.2.1 (UTC 2008-12-04)
Аудио
Идентификатор                            : 1
Формат                                   : AC-3
Формат/Информация                        : Audio Coding 3
Расширение режима                        : CM (complete main)
Параметр Endianness формата              : Big
Идентификатор кодека                     : 2000
Продолжительность                        : 1 ч. 39 м.
Вид битрейта                             : Постоянный
Битрейт                                  : 384 Кбит/сек
Каналы                                   : 6 каналов
Расположение каналов                     : Front: L C R, Side: L R, LFE
Частота                                  : 48,0 КГц
Битовая глубина                          : 16 бит
Метод сжатия                             : С потерями
Размер потока                            : 273 Мбайт (18%)
Выравнивание                             : Разделение по промежуткам
Продолжительность промежутка             : 42  мс. (1,00 видеокадр)
Время предзагрузки промежутка            : 500  мс.
Скриншоты: Время раздачи: 24/7,
до 5 скачавших.

[Цитировать]



Показать сообщения:    

Текущее время: 05-Дек 01:32

Часовой пояс: UTC + 3


Вы не можете начинать темы
Вы не можете отвечать на сообщения
Вы не можете редактировать свои сообщения
Вы не можете удалять свои сообщения
Вы не можете голосовать в опросах
Вы не можете прикреплять файлы к сообщениям
Вы не можете скачивать файлы

!ВНИМАНИЕ!
Сайт не предоставляет электронные версии произведений, а занимается лишь коллекционированием и каталогизацией ссылок, присылаемых и публикуемых на форуме нашими читателями. Если вы являетесь правообладателем какого-либо представленного материала и не желаете, чтобы ссылка на него находилась в нашем каталоге, свяжитесь с нами, и мы незамедлительно удалим ее. Файлы для обмена на трекере предоставлены пользователями сайта, и администрация не несет ответственности за их содержание. Просьба не заливать файлы, защищенные авторскими правами, а также файлы нелегального содержания!