[ Сегодня идет свободное скачивание без начисления Download ]


Статистика раздачи
Нет
 
   
 
Top  
 
 
Физрук -Год выпуска: 2014
Производство: Россия, Good Story Media, ТНТ
Жанр: Комедийный сериал
Продолжительность: ~ 00:25:00

-Режиссёр: Фёдор Стуков, Сергей Сенцов
В ролях: Дмитрий Нагиев, Евгений Кулаков, Юрий Устюгов, Егор Пежемский, Валентин Юнин, Андрей Крыжний, Анастасия Панина, Александр Гордон, Владимир Сычёв, Владимир Жеребцов

-Описание: Сериал расскажет о начальнике охраны крупного бизнесмена, которого хозяин увольняет за устаревшие методы работы, приобретенные главным героем во время бурного бандитского прошлого. Новоиспеченный безработный и бывший начальник охраны устраивается физруком в школу, где учится сын его бывшего босса, в надежде наладить с ним отношения и вернуться на прежнюю работу.-Сэмпл
-Качество: SATRip
Формат: AVI
Видео кодек: XviD
Аудио кодек: MP3
Видео: 720x400 (1.80:1), 25 fps, XviD build 50 ~1794 kbps avg, 0.25 bit/pixel
Аудио: 48 kHz, MPEG Layer 3, 1 ch, ~128.00 kbps avg

MI

Общее
Полное имя                               : D:\Downloads\Fizruk.2014.SATRip\Fizruk.S01.E01.2014.SATRip.KZ.avi
Формат                                   : AVI
Формат/Информация                        : Audio Video Interleave
Размер файла                             : 352 Мбайт
Продолжительность                        : 25 м.
Общий поток                              : 1932 Кбит/сек
Программа кодирования                    : VirtualDubMod 1.5.10.3 | www.virtualdub-fr.org || (build 2550/release)
Библиотека кодирования                   : VirtualDub build 32507/release
Видео
Идентификатор                            : 0
Формат                                   : MPEG-4 Visual
Профиль формата                          : Advanced [email protected]
Параметр BVOP формата                    : 2
Параметр QPel формата                    : Нет
Параметр GMC формата                     : Без точки перехода
Параметр матрицы формата                 : Default (MPEG)
Идентификатор кодека                     : XVID
Идентификатор кодека/Подсказка           : XviD
Продолжительность                        : 25 м.
Битрейт                                  : 1795 Кбит/сек
Ширина                                   : 720 пикселей
Высота                                   : 400 пикселей
Соотношение сторон                       : 16:9
Частота кадров                           : 25,000 кадров/сек
Цветовое пространство                    : YUV
Субдискретизация насыщенности            : 4:2:0
Битовая глубина                          : 8 бит
Тип развёртки                            : Прогрессивная
Метод сжатия                             : С потерями
Бит/(Пиксели*Кадры)                      : 0.249
Размер потока                            : 327 Мбайт (93%)
Библиотека кодирования                   : XviD 1.2.1 (UTC 2008-12-04)
Аудио
Идентификатор                            : 1
Формат                                   : MPEG Audio
Версия формата                           : Version 1
Профиль формата                          : Layer 3
Идентификатор кодека                     : 55
Идентификатор кодека/Подсказка           : MP3
Продолжительность                        : 25 м.
Вид битрейта                             : Постоянный
Битрейт                                  : 128 Кбит/сек
Каналы                                   : 1 канал
Частота                                  : 48,0 КГц
Метод сжатия                             : С потерями
Размер потока                            : 23,3 Мбайт (7%)
Выравнивание                             : Соединение по промежуткам
Продолжительность промежутка             : 40  мс. (1,00 видеокадр)
Время предзагрузки промежутка            : 504  мс.
Библиотека кодирования                   : LAME3.99r
Настройки программы                      : -m m -V 4 -q 2 -lowpass 20.5 -b 128

Скриншоты

[Цитировать]



Показать сообщения:    

Текущее время: 06-Дек 21:00

Часовой пояс: UTC + 3


Вы не можете начинать темы
Вы не можете отвечать на сообщения
Вы не можете редактировать свои сообщения
Вы не можете удалять свои сообщения
Вы не можете голосовать в опросах
Вы не можете прикреплять файлы к сообщениям
Вы не можете скачивать файлы

!ВНИМАНИЕ!
Сайт не предоставляет электронные версии произведений, а занимается лишь коллекционированием и каталогизацией ссылок, присылаемых и публикуемых на форуме нашими читателями. Если вы являетесь правообладателем какого-либо представленного материала и не желаете, чтобы ссылка на него находилась в нашем каталоге, свяжитесь с нами, и мы незамедлительно удалим ее. Файлы для обмена на трекере предоставлены пользователями сайта, и администрация не несет ответственности за их содержание. Просьба не заливать файлы, защищенные авторскими правами, а также файлы нелегального содержания!