[ Сегодня идет свободное скачивание без начисления Download ]


Статистика раздачи
Нет
 
   
 
 
 
-Никто мне не хозяин / Mig ager ingen (2013) BDRip- Год выпуска: 2013
Производство: Швеция
Жанр: Драма
Перевод: Одноголосый закадровый, любительский [Pashaup]
Субтитры: Вшитые отключаемые
Язык субтитров: Русский [Е.Володина]
Дата мировой премьеры: 7 ноября 2013 Швеция Международный кинофестиваль в Стокгольме
Режиссер: Челл-Оке Андерссон
Актеры: Микаэль Персбрандт, Сага Самуэльссон, Стен Льюнгрен, Пинг Мон Х. Валлен, Ида Энгволль, Таня Лорентсон, Сандра Андрейс, Клара Кристианссон, Петер Карлберг
Описание фильма:
Пятилетняя Лиза очень любит своего отца, хотя тот уделяет ей мало внимания и к тому же частенько напивается. Но после того как мать оставила их, для девочки лишь отец остаётся единственным близким человеком, так что она всеми силами старается поддерживать его имидж настоящего героя. В конце концов, Лизе удаётся изменить судьбу их семьи…

Продолжительность: 01:44:24
Качество видео: BDRip [1080p]
Видеокодек: MPEG-4 AVC/H.264
Битрейт видео: ~8958 kb/s
Размер кадра: 1920x800
Аудио 1: Russian / AC3 / 5.1 / 48 kHz / 448 kbps
Аудио 2: Swedish / DTS / 5.1 / 48 kHz / 1509 kbps

MediaInfo:

General
Unique ID                                : 226988223221301828410753971295015436264 (0xAAC45773EAF7D3C198A7FA5C62E47FE8)
Complete name                            : E:\Фильмы\Никто мне не хозяин.2013.BDRip.1080p.mkv
Format                                   : Matroska
Format version                           : Version 4 / Version 2
File size                                : 7.97 GiB
Duration                                 : 1h 44mn
Overall bit rate                         : 10.9 Mbps
Encoded date                             : UTC 2014-04-15 22:01:26
Writing application                      : mkvmerge v6.8.0 ('Theme for Great Cities') 64bit built on Mar  2 2014 21:34:26
Writing library                          : libebml v1.3.0 + libmatroska v1.4.1
Video
ID                                       : 1
Format                                   : AVC
Format/Info                              : Advanced Video Codec
Format profile                           : [url=mailto:[email protected]][email protected][/url]
Format settings, CABAC                   : Yes
Format settings, ReFrames                : 5 frames
Codec ID                                 : V_MPEG4/ISO/AVC
Duration                                 : 1h 44mn
Bit rate                                 : 8 958 Kbps
Width                                    : 1 920 pixels
Height                                   : 800 pixels
Display aspect ratio                     : 2.40:1
Frame rate mode                          : Constant
Frame rate                               : 25.000 fps
Color space                              : YUV
Chroma subsampling                       : 4:2:0
Bit depth                                : 8 bits
Scan type                                : Progressive
Bits/(Pixel*Frame)                       : 0.233
Stream size                              : 6.38 GiB (80%)
Writing library                          : x264 core 140 r2377 1ca7bb9
Encoding settings                        : cabac=1 / ref=5 / deblock=1:0:0 / analyse=0x3:0x133 / me=umh / subme=7 / psy=1 / psy_rd=1.00:0.00 / mixed_ref=1 / me_range=16 / chroma_me=1 / trellis=1 / 8x8dct=1 / cqm=0 / deadzone=21,11 / fast_pskip=0 / chroma_qp_offset=-2 / threads=36 / lookahead_threads=6 / sliced_threads=0 / nr=0 / decimate=1 / interlaced=0 / bluray_compat=0 / constrained_intra=0 / bframes=3 / b_pyramid=2 / b_adapt=1 / b_bias=0 / direct=1 / weightb=1 / open_gop=0 / weightp=2 / keyint=250 / keyint_min=25 / scenecut=40 / intra_refresh=0 / rc_lookahead=40 / rc=2pass / mbtree=1 / bitrate=8958 / ratetol=1.0 / qcomp=0.60 / qpmin=0 / qpmax=69 / qpstep=4 / cplxblur=20.0 / qblur=0.5 / ip_ratio=1.40 / aq=1:1.00
Language                                 : English
Default                                  : Yes
Forced                                   : No
Audio #1
ID                                       : 2
Format                                   : AC-3
Format/Info                              : Audio Coding 3
Mode extension                           : CM (complete main)
Format settings, Endianness              : Big
Codec ID                                 : A_AC3
Duration                                 : 1h 44mn
Bit rate mode                            : Constant
Bit rate                                 : 448 Kbps
Channel(s)                               : 6 channels
Channel positions                        : Front: L C R, Side: L R, LFE
Sampling rate                            : 48.0 KHz
Bit depth                                : 16 bits
Compression mode                         : Lossy
Stream size                              : 335 MiB (4%)
Title                                    : PashaUp
Language                                 : Russian
Default                                  : Yes
Forced                                   : Yes
Audio #2
ID                                       : 3
Format                                   : DTS
Format/Info                              : Digital Theater Systems
Mode                                     : 16
Format settings, Endianness              : Big
Codec ID                                 : A_DTS
Duration                                 : 1h 44mn
Bit rate mode                            : Constant
Bit rate                                 : 1 509 Kbps
Channel(s)                               : 6 channels
Channel positions                        : Front: L C R, Side: L R, LFE
Sampling rate                            : 48.0 KHz
Bit depth                                : 24 bits
Compression mode                         : Lossy
Stream size                              : 1.10 GiB (14%)
Language                                 : Swedish
Default                                  : No
Forced                                   : No
Text
ID                                       : 4
Format                                   : UTF-8
Codec ID                                 : S_TEXT/UTF8
Codec ID/Info                            : UTF-8 Plain Text
Title                                    : Е.Володина
Language                                 : Russian
Default                                  : No
Forced                                   : No
Menu
00:00:00.000                             : en:00:00:00.000
00:12:31.440                             : en:00:12:31.440
00:25:37.840                             : en:00:25:37.840
00:36:36.560                             : en:00:36:36.560
00:51:37.560                             : en:00:51:37.560
01:06:33.080                             : en:01:06:33.080
01:22:48.040                             : en:01:22:48.040
01:41:43.400                             : en:01:41:43.400
Скриншоты:
Время раздачи: Круглосуточно (До 5-ти скачавших)

[Цитировать]



Показать сообщения:    

Текущее время: 06-Дек 15:14

Часовой пояс: UTC + 3


Вы не можете начинать темы
Вы не можете отвечать на сообщения
Вы не можете редактировать свои сообщения
Вы не можете удалять свои сообщения
Вы не можете голосовать в опросах
Вы не можете прикреплять файлы к сообщениям
Вы не можете скачивать файлы

!ВНИМАНИЕ!
Сайт не предоставляет электронные версии произведений, а занимается лишь коллекционированием и каталогизацией ссылок, присылаемых и публикуемых на форуме нашими читателями. Если вы являетесь правообладателем какого-либо представленного материала и не желаете, чтобы ссылка на него находилась в нашем каталоге, свяжитесь с нами, и мы незамедлительно удалим ее. Файлы для обмена на трекере предоставлены пользователями сайта, и администрация не несет ответственности за их содержание. Просьба не заливать файлы, защищенные авторскими правами, а также файлы нелегального содержания!