[ Сегодня идет свободное скачивание без начисления Download ]


Статистика раздачи
Нет
 
   
 
Top  
 
 
-Метрополитен Манила / Metro Manila (2013) HDRip- Год выпуска: 2013
Производство: Великобритания, Филиппины
Жанр: Боевик, Триллер, Детектив
Описание фильма:
В надежде на лучшую жизнь, Оскар Рамирез и его семья решают перебраться из охваченных бедностью рисовых полей севера горного хребта Филиппин в финансовый конгломерат Метро-Манилы, где Оскар устраивается на работу водителем в транспортную компанию, занимающуюся перевозкой грузов в бронированных грузовиках. На новом месте Рамирез находит дружескую поддержку в лице старшего по званию Онга, который, как оказывается, ждал приезда кого-нибудь подобного Оскару уже достаточно долго…
Режиссер: Шон Эллис
Актеры: Джейк Макапагал, Алтея Вега, Джон Арсилья, Ана Абад-Сантос, Рубен Юи и др.
Продолжительность: 01:54:26
Качество видео: HDRip
Перевод: Одноголосый закадровый [Lenape]
Язык субтитров: Английские
Вид субтитров: Вшитые

Дата мировой премьеры: 20 января 2013
Видеокодек: XviD
Битрейт видео: ~1376 Кбит/сек
Размер кадра: 720x384
Аудио Russian: AC3 (6 ch), 448 Кбит/сек

MediaInfo

Общее
Полное имя                               : L:\!!!Torrent\Metro.Manila(2013).avi
Формат                                   : AVI
Формат/Информация                        : Audio Video Interleave
Размер файла                             : 1,47 Гбайт
Продолжительность                        : 1 ч. 54 м.
Общий поток                              : 1834 Кбит/сек
Программа кодирования                    : VirtualDubMod 1.6.0.0 SURROUND (build 2560/release)
Библиотека кодирования                   : VirtualDubMod build 2560/release
Видео
Идентификатор                            : 0
Формат                                   : MPEG-4 Visual
Профиль формата                          : Advanced Simple@L5
Параметр BVOP формата                    : 1
Параметр QPel формата                    : Нет
Параметр GMC формата                     : Без точки перехода
Параметр матрицы формата                 : Выборочная
Идентификатор кодека                     : XVID
Идентификатор кодека/Подсказка           : XviD
Продолжительность                        : 1 ч. 54 м.
Битрейт                                  : 1376 Кбит/сек
Ширина                                   : 720 пикселей
Высота                                   : 384 пикселя
Соотношение сторон                       : 1,85:1
Частота кадров                           : 24,000 кадра/сек
Цветовое пространство                    : YUV
Субдискретизация насыщенности            : 4:2:0
Битовая глубина                          : 8 бит
Тип развёртки                            : Прогрессивная
Метод сжатия                             : С потерями
Бит/(Пиксели*Кадры)                      : 0.207
Размер потока                            : 1,10 Гбайт (75%)
Библиотека кодирования                   : XviD 1.2.1 (UTC 2008-12-04)
Аудио
Идентификатор                            : 1
Формат                                   : AC-3
Формат/Информация                        : Audio Coding 3
Расширение режима                        : CM (complete main)
Параметр Endianness формата              : Big
Идентификатор кодека                     : 2000
Продолжительность                        : 1 ч. 54 м.
Вид битрейта                             : Постоянный
Битрейт                                  : 448 Кбит/сек
Каналы                                   : 6 каналов
Расположение каналов                     : Front: L C R, Side: L R, LFE
Частота                                  : 48,0 КГц
Битовая глубина                          : 16 бит
Метод сжатия                             : С потерями
Размер потока                            : 367 Мбайт (24%)
Выравнивание                             : Разделение по промежуткам
Продолжительность промежутка             : 42  мс. (1,00 видеокадр)
Время предзагрузки промежутка            : 500  мс.
Скриншоты: Время раздачи: 24/7 до первых 10

[Цитировать]



Показать сообщения:    

Текущее время: 21-Янв 22:31

Часовой пояс: UTC + 3


Вы не можете начинать темы
Вы не можете отвечать на сообщения
Вы не можете редактировать свои сообщения
Вы не можете удалять свои сообщения
Вы не можете голосовать в опросах
Вы не можете прикреплять файлы к сообщениям
Вы не можете скачивать файлы

!ВНИМАНИЕ!
Сайт не предоставляет электронные версии произведений, а занимается лишь коллекционированием и каталогизацией ссылок, присылаемых и публикуемых на форуме нашими читателями. Если вы являетесь правообладателем какого-либо представленного материала и не желаете, чтобы ссылка на него находилась в нашем каталоге, свяжитесь с нами, и мы незамедлительно удалим ее. Файлы для обмена на трекере предоставлены пользователями сайта, и администрация не несет ответственности за их содержание. Просьба не заливать файлы, защищенные авторскими правами, а также файлы нелегального содержания!