[ Сегодня идет свободное скачивание без начисления Download ]


Статистика раздачи
Нет
 
   
 
Top  
 
 
-Универ. Новая общага (2014) WEB-DLRip [H.264] (Сезон 6, серии 101-120)- Русское название: Универ. Новая общага
Страна: Россия
Год выпуска: 2014
Жанр: Комедия
Режиссер: Константин Смирнов, Максим Зыков
Актеры: Арарат Кещян, Станислав Ярушин, Александр Стекольников, Анна Кузина, Настасья Самбурская, Анна Хилькевич, Владимир Фекленко, Елена Валюшкина, Андрей Лебедев, Сергей Пиоро
Описание фильма:
В этом сезоне к Яне Семакиной из Челябинска приехала младшая сестра - 19-летняя Юля. Девушка поступила на платное отделение факультета дизайна. А так как с коммерческого не выгоняют, то онабудет наслаждаться жизнью! Юля - полная противоположность Яне.Она сексапильная, любит пофлиртовать и погулять, очень остроумная, колкая и вместе с тем женственная. Кошечка такая. На первый взгляд она очень хорошая, обаятельная, привлекательная. А на самом деле - хитрая! И делает только то, что ей нужно.

Дата российской премьеры: 10.10.2011
Продолжительность: ~ 00:25:00 серия
Качество видео: WEB-DLRip
Видеокодек: AVC/H.264
Битрейт видео: ~1800 Kbps
Размер кадра: 1024x576 (16:9)
Аудиокодек: AC3
Битрейт аудио: 2 ch, 192 Kbps

MediaInfo:

Общее
Уникальный идентификатор : 171545253914505719866729090421651805555 (0x810E6A04A13D828BB7C8A50AD45A1573)
Полное имя : E:\DOWNLOADS\Универ. Новая Общага (6 сезон) 2014 WEB-DLRip [H.264]\Универ. Новая общага - 101 серия.mkv
Формат : Matroska
Версия формата : Version 2
Размер файла : 350 Мбайт
Продолжительность : 24 м.
Общий поток : 2032 Кбит/сек
Дата кодирования : UTC 2014-04-17 14:58:57
Программа кодирования : mkvmerge v6.1.0 ('Old Devil') built on Mar 4 2013 09:10:42
Библиотека кодирования : libebml v1.3.0 + libmatroska v1.4.0
Видео
Идентификатор : 1
Формат : AVC
Формат/Информация : Advanced Video Codec
Профиль формата : [url=mailto:High@L4.1]High@L4.1[/url]
Параметр CABAC формата : Да
Параметр ReFrames формата : 6 кадров
Идентификатор кодека : V_MPEG4/ISO/AVC
Продолжительность : 24 м.
Битрейт : 1838 Кбит/сек
Ширина : 1024 пикселя
Высота : 576 пикселей
Соотношение сторон : 16:9
Режим частоты кадров : Постоянный
Частота кадров : 25,000 кадров/сек
Цветовое пространство : YUV
Субдискретизация насыщенности : 4:2:0
Битовая глубина : 8 бит
Тип развёртки : Прогрессивная
Бит/(Пиксели*Кадры) : 0.125
Размер потока : 310 Мбайт (89%)
Библиотека кодирования : x264 core 138 r2358 9e941d1
Настройки программы : cabac=1 / ref=6 / deblock=1:-3:-3 / analyse=0x3:0x113 / me=umh / subme=10 / psy=1 / psy_rd=0.00:10.00 / mixed_ref=1 / me_range=32 / chroma_me=1 / trellis=2 / 8x8dct=1 / cqm=0 / deadzone=21,11 / fast_pskip=0 / chroma_qp_offset=-2 / threads=6 / lookahead_threads=1 / sliced_threads=0 / nr=0 / decimate=1 / interlaced=0 / bluray_compat=0 / constrained_intra=0 / bframes=6 / b_pyramid=2 / b_adapt=1 / b_bias=0 / direct=1 / weightb=1 / open_gop=0 / weightp=2 / keyint=250 / keyint_min=25 / scenecut=40 / intra_refresh=0 / rc_lookahead=40 / rc=2pass / mbtree=1 / bitrate=1838 / ratetol=1.0 / qcomp=0.60 / qpmin=0 / qpmax=69 / qpstep=4 / cplxblur=20.0 / qblur=0.5 / vbv_maxrate=62500 / vbv_bufsize=78125 / nal_hrd=none / ip_ratio=1.40 / aq=1:1.00
Язык : Russian
Default : Да
Forced : Да
Аудио
Идентификатор : 2
Формат : AC-3
Формат/Информация : Audio Coding 3
Расширение режима : CM (complete main)
Параметр Endianness формата : Big
Идентификатор кодека : A_AC3
Продолжительность : 24 м.
Вид битрейта : Постоянный
Битрейт : 192 Кбит/сек
Каналы : 2 канала
Расположение каналов : Front: L R
Частота : 44,1 КГц
Битовая глубина : 16 бит
Метод сжатия : С потерями
Размер потока : 33,1 Мбайт (9%)
Default : Да
Forced : Нет

Краткое описание серий:

101 серия
Яна Семакина открывает собственное ИП и пытается организовать корпоратив, а ее бывший - Артур Микаэлян - познакомился с очень красивой, но очень глупой девушкой. И только Валя Будейко счастлив, ведь Маша согласилась с ним встречаться...
102 серия
У Вали с Машей первое свидание. Валентин планировал первый поцелуй намного позже, но ему приходится форсировать события. У Яны прямо перед мероприятием слетает ведущий. Она просит Майкла выручить ее и провести банкет, на котором совершенно случайно появляется ректор.
103 серия
Мама Вали лишает его денег за встречи с Машей. Валентин быстро составляет бюджет, в котором все деньги должна зарабатывать Маша. Майкл приводит свою Дашу знакомиться с Антоном и Кристиной. Ребята решают поиграть в интеллектуальную игру.
104 серия
В блок заселяется младшая сестра Семакиной. Эффектная девушка не хочет учиться, а хочет веселиться. А Майкл находит в универе золотую жилу в виде студентов-дипломников. Среди аспирантов-преподов начинается настоящая дипломная лихорадка.
105 серия
Юля трусиками сворачивает Майклу шею. Антон с Кристиной осваивают ролевые игры. А у Валентина беда: преподаватель ставит ему пятерки.
106 серия
Сенсация! Валентин начинает приводить домой девушек. Майкл устраивает экскурсию жене главы попечительского совета. Юля же шантажирует Яну страшной тайной.
107 серия
Маша предлагает Валентину расстаться, а он, чтобы она передумала, решает стать качком. Яна не может сдать зачет по физкультуре и обращается за помощью к Валентину-культуристу. Кристина уезжает в Тверь и просит Антона не тусить. Как бы не так.
108 серия
Валентин тяжело переживает разрыв с Машей, и ребята советуют ему оторваться в клубе. Неожиданно Валя соглашается! Маша в сердцах посылает преподавателя, а Яна продолжает нелегкий праздничный бизнес.
109 серия
У Вали неожиданный талант - он прекрасно играет на бильярде. А у Антона талант - зарабатывать на Вале. Майкл пытается избавиться от сексуального рабства. Яна же по-прежнему всех вылечит.
110 серия
Премьера! Юля ломает Вале мозг детскими загадками. Майкл жертвует сексом ради принципов. А Яна не знает, как вернуть Антону огромный долг.
111 серия
Антон случайно видит, как переодевается Юля. Маша из-за денежного подарка переносит свой день рождения на полгода вперед. А Валя получает в напарники гопника.
112 серия
Этой весной общага пополнится еще одним жителем! В блок к ребятам подселится младшая сестра Яны, ее полная противоположность. Знакомьтесь: Юля Семакина, 19 лет, только что из Челябинска. Раскована, сексуальна и не особо разборчива в средствах достижения целей.
113 серия
Валя пытается вызвать в Маше ревность. Майкл приходит в фитнес-зал, чтобы привести себя в форму. А Антон остается наедине в комнате с сексапильной Юлей.
114 серия
На двери блока появляется надпись "Здесь живет ЧМО". Какая-то студентка подкармливает Майкла чебуреками и кулебяками. А девочки отправляются в сауну по купону со скидкой.
115 серия
Маша решает дать Вале еще один шанс. У Антона и Кристины затишье в сексе. Юля ссорит ребят. А Майкл узнает, что его земляку изменяет девушка.
116 серия
Маша выдумывает статью для желтой газеты о любовной связи Яны и Семена Слепакова. Антон в тайне от Кристины был с друзьями в бане. А Валя устраивается работать официантом.
117 серия
Валя ради компьютерной игры начинает продавать вещи. Маша для статьи о стриптизершах внедряется в этот бизнес. Яна организовывает коменде день рождения и не только.
118 серия
Майкл потерял чужого ребенка. Валя ведется на прикол Антона и отправляется блюсти закон в темных коридорах общаги. А Маша получает небольшую роль в сериале.
119 серия
У Антона была бурная жизнь: учеба в Англии, переезд с Рублевки в общагу, работа официантом... Но то, что произойдет с ним в этот день, он не забудет никогда!
120 серия
Маша скучает по Вале-ботану и хочет найти ему замену. Кристина провоцирует и дразнит Антона. А Яна покупает сейф, чтобы не украли деньги. Но ведь могут украсть сейф!
Скриншоты:

[Цитировать]

Топик был перенесен из форума Новинки кинопроката в форум Универ
Henkok

Топик был перенесен из форума Отечественные сериалы в форум Архив
cyrmos



Показать сообщения:    

Текущее время: 25-Мар 10:01

Часовой пояс: UTC + 6


Вы не можете начинать темы
Вы не можете отвечать на сообщения
Вы не можете редактировать свои сообщения
Вы не можете удалять свои сообщения
Вы не можете голосовать в опросах
Вы не можете прикреплять файлы к сообщениям
Вы не можете скачивать файлы

!ВНИМАНИЕ!
Сайт не предоставляет электронные версии произведений, а занимается лишь коллекционированием и каталогизацией ссылок, присылаемых и публикуемых на форуме нашими читателями. Если вы являетесь правообладателем какого-либо представленного материала и не желаете, чтобы ссылка на него находилась в нашем каталоге, свяжитесь с нами, и мы незамедлительно удалим ее. Файлы для обмена на трекере предоставлены пользователями сайта, и администрация не несет ответственности за их содержание. Просьба не заливать файлы, защищенные авторскими правами, а также файлы нелегального содержания!