[ Сегодня идет свободное скачивание без начисления Download ]


Статистика раздачи
Нет
 
   
 
Top  
 
 
-Ржавая сталь / Rusty Steel (2013) HDTVRip- Год выпуска: 2013
Производство: США | Vision
Жанр: Приключения
Описание фильма:
Братья-американцы приезжают в Румынию, чтобы вступить в права наследства, оставленного им дядей. Каково же их разочарование, когда все наследство заключается в старой ржавой посудине под названием «Ржавая сталь». Братья даже подумывают вернуться в США, но дядины дневники толкают их к поискам.
Режиссер: Йон Йонеску
Актеры: Йохан Урб, Ирина Буческу, Пол Кэмпбелл, Дин Стокуэлл
Продолжительность: 01:29:27
Качество видео: HDTVRip [720p-LQ]
Перевод: Профессиональный (двухголосый, закадровый) (НТВ+)
Язык субтитров: Отсутствуют
Рейтинги: Отсутствуют
Дата мировой премьеры: Неизвестно
Видео кодек: MPEG-4 AVC/H.264
Видео: 1280x692 (1.85:1), 25.000 fps, ~3510 kbps avg, 0.159 bit/pixel
Аудио: 48 kHz, AC-3, 2.0 ch, Front: L, R ~448 kbps avg
Сэмпл: Скачать

MediaInfo

General
Unique ID                      : 183389501148381267191579707589830477452 (0x89F7887E24A030568F10DD5456ED868C)
Complete name                  : D:\фильмы\Rzhavaja.stalj.2013.HDTVRip.720p.mkv
Format                         : Matroska
Format version                 : Version 2
File size                      : 2.48 GiB
Duration                       : 1h 29mn
Overall bit rate               : 3 959 Kbps
Encoded date                   : UTC 2014-04-16 14:58:14
Writing application            : mkvmerge v5.4.0 ('Piper') built on Mar 10 2012 13:34:39
Writing library                : libebml v1.2.3 + libmatroska v1.3.0
Video
ID                             : 1
Format                         : AVC
Format/Info                    : Advanced Video Codec
Format profile                 : [url=mailto:High@L4.1]High@L4.1[/url]
Format settings, CABAC         : Yes
Format settings, ReFrames      : 9 frames
Codec ID                       : V_MPEG4/ISO/AVC
Duration                       : 1h 29mn
Bit rate                       : 3 510 Kbps
Width                          : 1 280 pixels
Height                         : 692 pixels
Display aspect ratio           : 1.85:1
Frame rate mode                : Constant
Frame rate                     : 25.000 fps
Color space                    : YUV
Chroma subsampling             : 4:2:0
Bit depth                      : 8 bits
Scan type                      : Progressive
Bits/(Pixel*Frame)             : 0.159
Stream size                    : 2.15 GiB (87%)
Writing library                : x264 core 125 r2208 d9d2288
Encoding settings              : cabac=1 / ref=9 / deblock=1:-2:-2 / analyse=0x3:0x133 / me=umh / subme=10 / psy=1 / psy_rd=1.00:0.15 / mixed_ref=1 / me_range=32 / chroma_me=1 / trellis=2 / 8x8dct=1 / cqm=0 / deadzone=21,11 / fast_pskip=0 / chroma_qp_offset=-3 / threads=6 / lookahead_threads=1 / sliced_threads=0 / nr=0 / decimate=0 / interlaced=0 / bluray_compat=0 / constrained_intra=0 / bframes=8 / b_pyramid=2 / b_adapt=2 / b_bias=0 / direct=3 / weightb=1 / open_gop=0 / weightp=2 / keyint=250 / keyint_min=25 / scenecut=40 / intra_refresh=0 / rc=2pass / mbtree=0 / bitrate=3510 / ratetol=1.0 / qcomp=0.60 / qpmin=0 / qpmax=69 / qpstep=4 / cplxblur=20.0 / qblur=0.5 / ip_ratio=1.40 / pb_ratio=1.30 / aq=1:0.80
Default                        : Yes
Forced                         : No
Audio
ID                             : 2
Format                         : AC-3
Format/Info                    : Audio Coding 3
Mode extension                 : CM (complete main)
Format settings, Endianness    : Big
Codec ID                       : A_AC3
Duration                       : 1h 29mn
Bit rate mode                  : Constant
Bit rate                       : 448 Kbps
Channel(s)                     : 2 channels
Channel positions              : Front: L R
Sampling rate                  : 48.0 KHz
Bit depth                      : 16 bits
Compression mode               : Lossy
Stream size                    : 287 MiB (11%)
Language                       : Russian
Default                        : Yes
Forced                         : No
Скриншоты:


Время раздачи: 10:00 - 24:00

[Цитировать]

Топик был перенесен из форума Новинки кинопроката в форум Приключения / Исторический
Henkok



Показать сообщения:    

Текущее время: 08-Дек 12:56

Часовой пояс: UTC + 3


Вы не можете начинать темы
Вы не можете отвечать на сообщения
Вы не можете редактировать свои сообщения
Вы не можете удалять свои сообщения
Вы не можете голосовать в опросах
Вы не можете прикреплять файлы к сообщениям
Вы не можете скачивать файлы

!ВНИМАНИЕ!
Сайт не предоставляет электронные версии произведений, а занимается лишь коллекционированием и каталогизацией ссылок, присылаемых и публикуемых на форуме нашими читателями. Если вы являетесь правообладателем какого-либо представленного материала и не желаете, чтобы ссылка на него находилась в нашем каталоге, свяжитесь с нами, и мы незамедлительно удалим ее. Файлы для обмена на трекере предоставлены пользователями сайта, и администрация не несет ответственности за их содержание. Просьба не заливать файлы, защищенные авторскими правами, а также файлы нелегального содержания!