[ Сегодня идет свободное скачивание без начисления Download ]


Статистика раздачи
Нет
 
   
 
Top  
 
 
-Почему ты не играешь в аду? / Why Don't You Play in Hell? / Jigoku de naze warui (2013) HDRip- Год выпуска: 2013
Жанр: боевик, драма
Перевод: Двуголосый закадровый, любительский
Автор перевода: [DeadSno & den904]
Вид субтитров: Отсутствуют
Режиссер: Сион Соно / Sion Sono
Актеры: Хироки Хасегава, Ген Хошино, Акихиро Китамура, Дзюн Кунимура, Фуми Никайдо, Так Сакагути, Томочика, Синъити Цуцуми
Описание фильма:
Герой этого фильма задумал снять фильм о якудзе, который поразит зрителей жесткостью и реалистичностью. Но для этого ему приходится близко познакомится с миром японской мафии, а это чревато большими проблемами и для него, и для всей съемочной группы. Теперь молодому режиссеру предстоит пожалеть, что на съемках стало слишком много реализма, а льющаяся рекой кровь – совсем не бутафорская...

Дата мировой премьеры: 29 августа 2013, ...
Продолжительность: 02:09:49
Качество видео: HDRip
Видеокодек: XviD
Битрейт видео: ~ 1 797 Kbps
Размер кадра: 720x304
Аудиокодек: AC3, 5.1
Битрейт аудио: 448 kb/s
Сэмпл: Скачать

MediaInfo

General
Complete name : C:\Users\ladno\Desktop\Закачено\Pochemu.ty.ne.igraesh.v.adu.2013.L2.HDRip.avi
Format : AVI
Format/Info : Audio Video Interleave
File size : 2.04 GiB
Duration : 2h 9mn
Overall bit rate : 2 254 Kbps
Video
ID : 0
Format : MPEG-4 Visual
Format profile : Advanced Simple@L5
Format settings, BVOP : 2
Format settings, QPel : No
Format settings, GMC : No warppoints
Format settings, Matrix : Default (MPEG)
Codec ID : XVID
Codec ID/Hint : XviD
Duration : 2h 9mn
Bit rate : 1 797 Kbps
Width : 720 pixels
Height : 304 pixels
Display aspect ratio : 2.35:1
Frame rate : 23.976 fps
Color space : YUV
Chroma subsampling : 4:2:0
Bit depth : 8 bits
Scan type : Progressive
Compression mode : Lossy
Bits/(Pixel*Frame) : 0.342
Stream size : 1.63 GiB (80%)
Writing library : XviD 64
Audio
ID : 1
Format : AC-3
Format/Info : Audio Coding 3
Mode extension : CM (complete main)
Format settings, Endianness : Big
Codec ID : 2000
Duration : 2h 9mn
Source duration : 2h 9mn
Bit rate mode : Constant
Bit rate : 448 Kbps
Channel(s) : 6 channels
Channel positions : Front: L C R, Side: L R, LFE
Sampling rate : 48.0 KHz
Bit depth : 16 bits
Compression mode : Lossy
Stream size : 416 MiB (20%)
Alignment : Aligned on interleaves
Interleave, duration : 42 ms (1.00 video frame)
Скриншоты:
Время раздачи: 24/7

[Цитировать]



Показать сообщения:    

Текущее время: 10-Дек 04:15

Часовой пояс: UTC + 3


Вы не можете начинать темы
Вы не можете отвечать на сообщения
Вы не можете редактировать свои сообщения
Вы не можете удалять свои сообщения
Вы не можете голосовать в опросах
Вы не можете прикреплять файлы к сообщениям
Вы не можете скачивать файлы

!ВНИМАНИЕ!
Сайт не предоставляет электронные версии произведений, а занимается лишь коллекционированием и каталогизацией ссылок, присылаемых и публикуемых на форуме нашими читателями. Если вы являетесь правообладателем какого-либо представленного материала и не желаете, чтобы ссылка на него находилась в нашем каталоге, свяжитесь с нами, и мы незамедлительно удалим ее. Файлы для обмена на трекере предоставлены пользователями сайта, и администрация не несет ответственности за их содержание. Просьба не заливать файлы, защищенные авторскими правами, а также файлы нелегального содержания!