[ Сегодня идет свободное скачивание без начисления Download ]


Статистика раздачи
Нет
 
   
 
Top  
 
 
-Пришествие Дьявола / Devil's Due (2014) BDRip- Год выпуска: 2014
Производство: США, 20th Century Fox Film Corporation
Жанр: Ужасы, Триллер, Фантастика
Режиссер: Мэттью Беттинелли, Тайлер Джиллетт
Продюсер: Джон Дэвис, Джастин Мартинез, Бриттани Мориссей
Актеры: Эллисон Миллер, Зак Гилфорд, Сэм Андерсон, Роджер Пейано, Ванесса Рэй, Билл Мартин Уильямс, Джеральдин Сингер, Джулия Дентон Френсис, Колин Уолкер, Мэдисон Вульф
Описание фильма:
После странной ночи во время их медового месяца молодожены сталкиваются с проблемой незапланированной беременности. Постепенно муж начинает замечать необычные изменения в поведении жены, поначалу они списывают это на нервы, но по прошествии нескольких месяцев становится очевидным, что перемены в ее теле и разуме имеют более зловещее происхождение.
Перевод: Дублированный [Лицензия]
Субтитры: отсутствуют

Дата мировой премьеры: 16 января 2014
Дата российской премьеры: 30 января 2014, «20 Век Фокс СНГ»
Дата выхода DVD релиза: 22 мая 2014, «20 Век Фокс СНГ»
Продолжительность: 01:29:01
Качество видео: BDRip
Видеокодек: Xvid
Битрейт видео: ~1036 kbps
Размер кадра: 624x336
Аудиокодек: MP3 2.0
Битрейт аудио: 128 kbps
Сэмпл: Скачать

МедиаИнфо

Общее
Полное имя                               : D:\Рипы выкладка [Deadmauvlad]\Рипы готовые\Devils.Due.2014.Rus.DUB_R5_.BDRip.Deadmauvlad.avi
Формат                                   : AVI
Формат/Информация                        : Audio Video Interleave
Размер файла                             : 747 Мбайт
Продолжительность                        : 1 ч. 29 м.
Общий поток                              : 1174 Кбит/сек
Название фильма                          : Devils.Due.2014.Rus.DUB_R5.BDRip.Deadmauvlad
Режиссёр                                 : Deadmauvlad
Жанр                                     : Ужасы, Триллер
Программа кодирования                    : VirtualDubMod 1.5.10.3 | [url=http://www.virtualdub-fr.org]www.virtualdub-fr.org[/url] || (build 2550/release)
Формат оригинала/Имя                     : Фильм
Правообладатель                          : Goldenshara
Видео
Идентификатор                            : 0
Формат                                   : MPEG-4 Visual
Профиль формата                          : Advanced Simple@L5
Параметр BVOP формата                    : 1
Параметр QPel формата                    : Нет
Параметр GMC формата                     : Без точки перехода
Параметр матрицы формата                 : Выборочная
Идентификатор кодека                     : XVID
Идентификатор кодека/Подсказка           : XviD
Продолжительность                        : 1 ч. 29 м.
Битрейт                                  : 1037 Кбит/сек
Ширина                                   : 624 пикселя
Высота                                   : 336 пикселей
Соотношение сторон                       : 1,85:1
Частота кадров                           : 23,976 кадра/сек
Цветовое пространство                    : YUV
Субдискретизация насыщенности            : 4:2:0
Битовая глубина                          : 8 бит
Тип развёртки                            : Прогрессивная
Метод сжатия                             : С потерями
Бит/(Пиксели*Кадры)                      : 0.206
Размер потока                            : 660 Мбайт (88%)
Библиотека кодирования                   : XviD 73
Аудио
Идентификатор                            : 1
Формат                                   : MPEG Audio
Версия формата                           : Version 1
Профиль формата                          : Layer 3
Идентификатор кодека                     : 55
Идентификатор кодека/Подсказка           : MP3
Продолжительность                        : 1 ч. 29 м.
Вид битрейта                             : Постоянный
Битрейт                                  : 128 Кбит/сек
Каналы                                   : 2 канала
Частота                                  : 48,0 КГц
Метод сжатия                             : С потерями
Размер потока                            : 81,5 Мбайт (11%)
Выравнивание                             : Соединение по промежуткам
Продолжительность промежутка             : 42  мс. (1,00 видеокадр)
Время предзагрузки промежутка            : 504  мс.
Библиотека кодирования                   : LAME3.99r
Настройки программы                      : -m s -V 4 -q 2 -lowpass 17 -b 128
Скриншоты

[Цитировать]

Топик был перенесен из форума Новинки кинопроката в форум Ужасы
Henkok



Показать сообщения:    

Текущее время: 09-Дек 16:39

Часовой пояс: UTC + 3


Вы не можете начинать темы
Вы не можете отвечать на сообщения
Вы не можете редактировать свои сообщения
Вы не можете удалять свои сообщения
Вы не можете голосовать в опросах
Вы не можете прикреплять файлы к сообщениям
Вы не можете скачивать файлы

!ВНИМАНИЕ!
Сайт не предоставляет электронные версии произведений, а занимается лишь коллекционированием и каталогизацией ссылок, присылаемых и публикуемых на форуме нашими читателями. Если вы являетесь правообладателем какого-либо представленного материала и не желаете, чтобы ссылка на него находилась в нашем каталоге, свяжитесь с нами, и мы незамедлительно удалим ее. Файлы для обмена на трекере предоставлены пользователями сайта, и администрация не несет ответственности за их содержание. Просьба не заливать файлы, защищенные авторскими правами, а также файлы нелегального содержания!