[ Сегодня идет свободное скачивание без начисления Download ]


Статистика раздачи
Нет
 
   
 
Top  
 
 
-47 ронинов / 47 Ronin (2013) BDRip [H.264]«Таинственный странник избранный судьбой»- Год выпуска: 2013
Производство: США
Жанр: Фэнтези, боевик, приключения
Режиссер: Карл Ринш
Продюсер: Памела Эбди, Эрик МакЛеод, Крис Фентон
Актеры: Киану Ривз, Хироюки Санада, Ко Сибасаки, Таданобу Асано, Ринко Кикути, Кэри-Хироюки Тагава, Того Игава
Описание фильма:
Таинственный странник, преданный всеми, проданный в рабство, избранный судьбой вершить месть, станет одним из 47 воинов, бросивших вызов смерти. Явившись из другого мира, он восстанет против темных сил, чтобы защитить свою запретную любовь.
Язык: Русский, Английский
Перевод: Дублированный (Лицензия Blu-Ray CEE)
Субтитры: Вшитые отключаемые
Язык субтитров: Русский, Украинский, Английский
Рейтинг MPAA: PG-13 (детям до 13 лет просмотр не желателен)
Возраст: 12+

Дата мировой премьеры: 6 декабря 2013
Дата российской премьеры: 1 января 2014, «UPI»
Дата выхода DVD релиза: 24 апреля 2014, «Двадцатый Век Фокс СНГ»
Дата выхода Blu-Ray релиза: 24 апреля 2014, «Двадцатый Век Фокс СНГ»
Продолжительность: 01:58:43
Качество видео: BDRip [H.264]
Видеокодек: MPEG-4 AVC/H.264
Битрейт видео: ~2451 Kbps
Размер кадра: 1024x426, 23.976 fps
Аудио #1: AC3, 48.0 KHz, 6 ch, 448 Kbps, CBR (Русский, Дубляж)
Аудио #2: AC3, 48.0 KHz, 6 ch, 448 Kbps, CBR (Английский)

Знаете ли вы, что...

• По словам художника по костюмам Пенни Роуз, у всех были костюмы, подогнанные в соответствии с фоном: «Основываясь на культуре, форма одежды должна была быть одной — кимоно, но мы совершили своего рода «модный» переворот в этом направлении и добавили различных цветов».
• По словам Киану Ривза, специально ради актеров второго плана съемки сначала проходили на японском и уже затем на английском языке.
• Это режиссерский дебют Карла Ринша.
• Стрелы для фильма были сделаны известным европейским мастером Майклом Рипом (Michael Reape). Небольшое количество стрел было выполнено в «музейном» качестве для съемки крупным планом.
• Вместе с Киану Ривзом роли были отданы пяти японским актерам (Хироюки Санада, Таданобу Асано, Ринко Кикути, Ко Шибасаки и Джин Аканиши), чтобы сделать историю более достоверной, вместо того, чтобы выбрать актеров, узнаваемых в США.
• Специально для фильма на съемочную площадку в Лондон из Италии привезли 300 побегов бамбука, каждый высотой по 15 метров, и метровые деревья бонсай возрастом более ста лет.

MediaInfo:

Формат                                   : Matroska
Версия формата                           : Version 2
Размер файла                             : 2,83 Гбайт
Продолжительность                        : 1 ч. 58 м.
Общий поток                              : 3415 Кбит/сек
Название фильма                          : 47 Ronin
Дата кодирования                         : UTC 2014-04-24 19:54:41
Программа кодирования                    : mkvmerge v6.8.0 ('Theme for Great Cities') 64bit built on Mar  2 2014 21:34:26
Библиотека кодирования                   : libebml v1.3.0 + libmatroska v1.4.1
Видео
Идентификатор                            : 1
Формат                                   : AVC
Формат/Информация                        : Advanced Video Codec
Профиль формата                          : [url=mailto:High@L4.1]High@L4.1[/url]
Параметр CABAC формата                   : Да
Параметр ReFrames формата                : 10 кадров
Идентификатор кодека                     : V_MPEG4/ISO/AVC
Продолжительность                        : 1 ч. 58 м.
Битрейт                                  : 2451 Кбит/сек
Номинальный битрейт                      : 2609 Кбит/сек
Ширина                                   : 1024 пикселя
Высота                                   : 426 пикселей
Соотношение сторон                       : 2,40:1
Режим частоты кадров                     : Постоянный
Частота кадров                           : 23,976 кадра/сек
Цветовое пространство                    : YUV
Субдискретизация насыщенности            : 4:2:0
Битовая глубина                          : 8 бит
Тип развёртки                            : Прогрессивная
Бит/(Пиксели*Кадры)                      : 0.234
Размер потока                            : 2,03 Гбайт (72%)
Библиотека кодирования                   : x264 core 142 r2409+42 04be48a tMod [8-bit@4:2:0 X86_64]
Настройки программы                      : cabac=1 / ref=10 / deblock=1:-2:-2 / analyse=0x3:0x133 / me=tesa / subme=11 / psy=1 / fade_compensate=0.00 / psy_rd=1.00:0.15 / mixed_ref=1 / me_range=48 / chroma_me=1 / trellis=2 / 8x8dct=1 / cqm=0 / deadzone=21,11 / fast_pskip=0 / chroma_qp_offset=-3 / threads=6 / lookahead_threads=1 / sliced_threads=0 / nr=0 / decimate=0 / interlaced=0 / bluray_compat=0 / constrained_intra=0 / fgo=0 / bframes=12 / b_pyramid=2 / b_adapt=2 / b_bias=0 / direct=3 / weightb=1 / open_gop=0 / weightp=2 / keyint=240 / keyint_min=23 / scenecut=40 / intra_refresh=0 / rc=2pass / mbtree=0 / bitrate=2609 / ratetol=1.0 / qcomp=0.60 / qpmin=0:0:0 / qpmax=69:69:69 / qpstep=4 / cplxblur=20.0 / qblur=0.5 / ip_ratio=1.40 / pb_ratio=1.30 / aq=2:0.80 / aq-sensitivity=10.00 / aq-factor=1.00:1.00:1.00 / aq2=0 / aq3=0
Язык                                     : English
Default                                  : Да
Forced                                   : Нет
Аудио #1
Идентификатор                            : 2
Формат                                   : AC-3
Формат/Информация                        : Audio Coding 3
Расширение режима                        : CM (complete main)
Параметр Endianness формата              : Big
Идентификатор кодека                     : A_AC3
Продолжительность                        : 1 ч. 58 м.
Вид битрейта                             : Постоянный
Битрейт                                  : 448 Кбит/сек
Каналы                                   : 6 каналов
Расположение каналов                     : Front: L C R, Side: L R, LFE
Частота                                  : 48,0 КГц
Битовая глубина                          : 16 бит
Метод сжатия                             : С потерями
Размер потока                            : 380 Мбайт (13%)
Язык                                     : Russian
Default                                  : Да
Forced                                   : Нет
Аудио #2
Идентификатор                            : 3
Формат                                   : AC-3
Формат/Информация                        : Audio Coding 3
Расширение режима                        : CM (complete main)
Параметр Endianness формата              : Big
Идентификатор кодека                     : A_AC3
Продолжительность                        : 1 ч. 58 м.
Вид битрейта                             : Постоянный
Битрейт                                  : 448 Кбит/сек
Каналы                                   : 6 каналов
Расположение каналов                     : Front: L C R, Side: L R, LFE
Частота                                  : 48,0 КГц
Битовая глубина                          : 16 бит
Метод сжатия                             : С потерями
Размер потока                            : 380 Мбайт (13%)
Язык                                     : English
Default                                  : Нет
Forced                                   : Нет
Текст #1
Идентификатор                            : 4
Формат                                   : UTF-8
Идентификатор кодека                     : S_TEXT/UTF8
Идентификатор кодека/Информация          : UTF-8 Plain Text
Язык                                     : Russian
Default                                  : Нет
Forced                                   : Нет
Текст #2
Идентификатор                            : 5
Формат                                   : UTF-8
Идентификатор кодека                     : S_TEXT/UTF8
Идентификатор кодека/Информация          : UTF-8 Plain Text
Язык                                     : Ukrainian
Default                                  : Нет
Forced                                   : Нет
Текст #3
Идентификатор                            : 6
Формат                                   : UTF-8
Идентификатор кодека                     : S_TEXT/UTF8
Идентификатор кодека/Информация          : UTF-8 Plain Text
Заголовок                                : Full
Язык                                     : English
Default                                  : Нет
Forced                                   : Нет
Текст #4
Идентификатор                            : 7
Формат                                   : UTF-8
Идентификатор кодека                     : S_TEXT/UTF8
Идентификатор кодека/Информация          : UTF-8 Plain Text
Заголовок                                : SDH
Язык                                     : English
Default                                  : Нет
Forced                                   : Нет
Текст #5
Идентификатор                            : 8
Формат                                   : UTF-8
Идентификатор кодека                     : S_TEXT/UTF8
Идентификатор кодека/Информация          : UTF-8 Plain Text
Заголовок                                : SDH (Colored)
Язык                                     : English
Default                                  : Нет
Forced                                   : Нет
Меню
00:00:00.000                             : :Chapter 01
00:04:27.558                             : :Chapter 02
00:11:12.088                             : :Chapter 03
00:16:27.820                             : :Chapter 04
00:20:11.835                             : :Chapter 05
00:26:52.319                             : :Chapter 06
00:31:02.944                             : :Chapter 07
00:36:10.626                             : :Chapter 08
00:43:36.614                             : :Chapter 09
00:50:14.511                             : :Chapter 10
00:54:59.421                             : :Chapter 11
00:59:54.048                             : :Chapter 12
01:09:57.735                             : :Chapter 13
01:13:59.017                             : :Chapter 14
01:19:12.247                             : :Chapter 15
01:24:17.385                             : :Chapter 16
01:33:00.825                             : :Chapter 17
01:38:55.554                             : :Chapter 18
01:44:41.608                             : :Chapter 19
01:48:38.303                             : :Chapter 20
01:58:42.949                             : :Chapter 21
Скриншоты:

[Цитировать]



Показать сообщения:    

Текущее время: 07-Дек 17:34

Часовой пояс: UTC + 3


Вы не можете начинать темы
Вы не можете отвечать на сообщения
Вы не можете редактировать свои сообщения
Вы не можете удалять свои сообщения
Вы не можете голосовать в опросах
Вы не можете прикреплять файлы к сообщениям
Вы не можете скачивать файлы

!ВНИМАНИЕ!
Сайт не предоставляет электронные версии произведений, а занимается лишь коллекционированием и каталогизацией ссылок, присылаемых и публикуемых на форуме нашими читателями. Если вы являетесь правообладателем какого-либо представленного материала и не желаете, чтобы ссылка на него находилась в нашем каталоге, свяжитесь с нами, и мы незамедлительно удалим ее. Файлы для обмена на трекере предоставлены пользователями сайта, и администрация не несет ответственности за их содержание. Просьба не заливать файлы, защищенные авторскими правами, а также файлы нелегального содержания!