[ Сегодня идет свободное скачивание без начисления Download ]


Статистика раздачи
Нет
 
   
 
Top  
 
 
-Имплантированный / Implanted (2013) HDRip«When your memory lies, how do you find the truth?»- Год выпуска: 2013
Производство: США
Жанр: Фантастика, Триллер, Драма, Детектив
Перевод: Двуголосый закадровый, любительский
Озвучка / Автор перевода: DeadSno & den904
Субтитры: Отсутствуют
Дата мировой премьеры: 6 декабря 2013
Режиссер: Томас Верретте
Продюсер: Шон Линч, Томас Верретте, Кэти Уайсс
Актеры: Джастис Лик, Роберт Пралго, Элизабет Кинер, Джейсон Тернер, Дебора Чайлдз, Джеки Голдстон, Стивен Эллисон, Стивен Кодилл
Описание фильма:
Научно-фантастическая драма о борьбе молодого человека, желающего раскрыть правду, окружающую незаконную медицинскую операцию, выполненную на нем его собственным отцом.

Продолжительность: 01:25:31
Качество видео: HDRip
Видеокодек: Xvid
Битрейт видео: ~1969 Kbit/s
Размер кадра: 720 x 304
Аудиокодек: AC3 5.1
Битрейт аудио: 448 Kbit/s

MediaInfo

Общее
Полное имя                       : D:\Торренты\Имплантированный.2013.HDRip.avi
Формат                           : AVI
Формат/Информация                : Audio Video Interleave
Размер файла                     : 1,45 Гбайт
Продолжительность                : 1 ч. 25 м.
Общий поток                      : 2429 Кбит/сек
Программа кодирования            : VirtualDubMod 1.5.10.2 (build 2542/release)
Библиотека кодирования           : VirtualDubMod build 2542/release
Видео
Идентификатор                    : 0
Формат                           : MPEG-4 Visual
Профиль формата                  : Advanced Simple@L5
Параметр BVOP формата            : 1
Параметр QPel формата            : Нет
Параметр GMC формата             : Без точки перехода
Параметр матрицы формата         : Default (H.263)
Режим смешивания                 : Сжатый битовый поток
Идентификатор кодека             : XVID
Идентификатор кодека/Подсказка   : XviD
Продолжительность                : 1 ч. 25 м.
Битрейт                          : 1969 Кбит/сек
Ширина                           : 720 пикс.
Высота                           : 304 пикс.
Соотношение сторон               : 2,35:1
Частота кадров                   : 29,970 кадр/сек
Цветовое пространство            : YUV
Подвыборка цветности             : 4:2:0
Битовая глубина                  : 8 бит
Тип развёртки                    : Прогрессивная
Метод сжатия                     : С потерями
Бит/(Пиксели*Кадры)              : 0.300
Размер потока                    : 1,18 Гбайт (81%)
Библиотека кодирования           : XviD 64
Аудио
Идентификатор                    : 1
Формат                           : AC-3
Формат/Информация                : Audio Coding 3
Расширение режима                : CM (complete main)
Идентификатор кодека             : 2000
Продолжительность                : 1 ч. 25 м.
Вид битрейта                     : Постоянный
Битрейт                          : 448 Кбит/сек
Каналы                           : 6 каналов
Расположение каналов             : Front: L C R, Side: L R, LFE
Частота                          : 48,0 КГц
Битовая глубина                  : 16 бит
Метод сжатия                     : С потерями
Размер потока                    : 274 Мбайт (18%)
Выравнивание                     : Разделение по промежуткам
Продолжительность промежутка     : 33  мс. (1,00 видеокадр)
Время предзагрузки промежутка    : 500 ms
Скриншоты:
Время раздачи: 24/7 по возможности

[Цитировать]



Показать сообщения:    

Текущее время: 09-Дек 01:09

Часовой пояс: UTC + 3


Вы не можете начинать темы
Вы не можете отвечать на сообщения
Вы не можете редактировать свои сообщения
Вы не можете удалять свои сообщения
Вы не можете голосовать в опросах
Вы не можете прикреплять файлы к сообщениям
Вы не можете скачивать файлы

!ВНИМАНИЕ!
Сайт не предоставляет электронные версии произведений, а занимается лишь коллекционированием и каталогизацией ссылок, присылаемых и публикуемых на форуме нашими читателями. Если вы являетесь правообладателем какого-либо представленного материала и не желаете, чтобы ссылка на него находилась в нашем каталоге, свяжитесь с нами, и мы незамедлительно удалим ее. Файлы для обмена на трекере предоставлены пользователями сайта, и администрация не несет ответственности за их содержание. Просьба не заливать файлы, защищенные авторскими правами, а также файлы нелегального содержания!