[ Сегодня идет свободное скачивание без начисления Download ]


Статистика раздачи
Нет
 
   
 
Top  
 
 
-Тайное влечение / Adore / Perfect Mothers (2013) HDRip [Line]- Год выпуска: 2013
Производство: Австралия, Франция, Gaumont, Screen Australia, Cin?@
Жанр: Драма
Перевод: Дублированное [Чистый звук]
Субтитры: Отсутствуют
Режиссер: Анн Фонтен
Продюсер: Филипп Каркассон, Мишель Феллер, Барбара Гиббс
Актеры: Робин Райт, Наоми Уоттс, Завьер Сэмюэл, Бен Мендельсон, Софи Лоу, Джеймс Фрешвилл, Джессика Тоуви, Гари Свит, Элисон Стэнден, Дэйн Иде
Описание фильма:
Главные героини фильма — Лил и Роз — две давние подруги, которые влюбляются в сыновей друг друга. Из-за страха быть осуждёнными обществом, женщины скрывают свои отношения в тайне на протяжении нескольких лет до тех пор, пока их секреты не становятся достоянием общественности. Это открытие не только грозит разрушить жизни обеих подруг, но и ставит перед сложным выбором их сыновей, которые должны решить: жить ли им по проторенной дороге или же следовать своим истинным желаниям.

Дата мировой премьеры: 18 января 2013
Дата российской премьеры: 12 сентября 2013, «West»
Продолжительность: 01:51:15
Качество видео: HDRip
Видеокодек: XviD
Битрейт видео: 1676 kb/s
Размер кадра: 720x304
Аудиокодек: AC3, 2.0
Битрейт аудио: 192 kb/s
Сэмпл: Скачать

MediaInfo:

Общее
Полное имя : D:\Фильмы\Tajnoe.vlechenie.2013.HDRip.1400MB.avi
Формат : AVI
Формат/Информация : Audio Video Interleave
Размер файла : 1,46 Гбайт
Продолжительность : 1 ч. 51 м.
Общий поток : 1878 Кбит/сек
Программа кодирования : VirtualDubMod 1.5.10.2 (build 2540/release)
Библиотека кодирования : VirtualDubMod build 2540/release
Видео
Идентификатор : 0
Формат : MPEG-4 Visual
Профиль формата : Advanced Simple@L5
Параметр BVOP формата : 2
Параметр QPel формата : Нет
Параметр GMC формата : Без точки перехода
Параметр матрицы формата : Default (MPEG)
Идентификатор кодека : XVID
Идентификатор кодека/Подсказка : XviD
Продолжительность : 1 ч. 51 м.
Битрейт : 1676 Кбит/сек
Ширина : 720 пикселей
Высота : 304 пикселя
Соотношение сторон : 2,35:1
Частота кадров : 24,000 кадра/сек
Цветовое пространство : YUV
Субдискретизация насыщенности : 4:2:0
Битовая глубина : 8 бит
Тип развёртки : Прогрессивная
Метод сжатия : С потерями
Бит/(Пиксели*Кадры) : 0.319
Размер потока : 1,30 Гбайт (89%)
Библиотека кодирования : XviD 1.2.1 (UTC 2008-12-04)
Аудио
Идентификатор : 1
Формат : AC-3
Формат/Информация : Audio Coding 3
Расширение режима : CM (complete main)
Параметр Endianness формата : Big
Идентификатор кодека : 2000
Продолжительность : 1 ч. 51 м.
Вид битрейта : Постоянный
Битрейт : 192 Кбит/сек
Каналы : 2 канала
Расположение каналов : Front: L R
Частота : 48,0 КГц
Битовая глубина : 16 бит
Метод сжатия : С потерями
Размер потока : 153 Мбайт (10%)
Выравнивание : Разделение по промежуткам
Продолжительность промежутка : 42 мс. (1,00 видеокадр)
Время предзагрузки промежутка : 500 мс.
Скриншоты:

[Цитировать]



Показать сообщения:    

Текущее время: 11-Дек 12:59

Часовой пояс: UTC + 3


Вы не можете начинать темы
Вы не можете отвечать на сообщения
Вы не можете редактировать свои сообщения
Вы не можете удалять свои сообщения
Вы не можете голосовать в опросах
Вы не можете прикреплять файлы к сообщениям
Вы не можете скачивать файлы

!ВНИМАНИЕ!
Сайт не предоставляет электронные версии произведений, а занимается лишь коллекционированием и каталогизацией ссылок, присылаемых и публикуемых на форуме нашими читателями. Если вы являетесь правообладателем какого-либо представленного материала и не желаете, чтобы ссылка на него находилась в нашем каталоге, свяжитесь с нами, и мы незамедлительно удалим ее. Файлы для обмена на трекере предоставлены пользователями сайта, и администрация не несет ответственности за их содержание. Просьба не заливать файлы, защищенные авторскими правами, а также файлы нелегального содержания!