[ Сегодня идет свободное скачивание без начисления Download ]


Статистика раздачи
Нет
 
   
 
Top  
 
 
-РобоКоп / RoboCop (2014) WEB-DL [H.264/720p-LQ] [Звук c TS]- Год выпуска: 2014
Производство: США, Metro-Goldwyn-Mayer (MGM), Columbia Pictures, Strike Entertainment
Жанр: Фантастика, Боевик, Криминал
Перевод: Дублированный [Звук c TS]
Субтитры: Отсутствуют
Режиссер: Жозе Падилья
Продюсер: Марк Абрахам, Роджер Бернбаум, Билл Карраро
Актеры: Юэль Киннаман, Гари Олдман, Майкл Китон, Сэмюэл Л. Джексон, Эбби Корниш, Джеки Эрл Хейли, Майкл К. Уильямс, Дженнифер Или, Джей Барушель, Марианн Жан-Батист
Описание фильма:
2028 год. Международный конгломерат ОмниКорп лидирует в производстве робототехники. Благодаря разработкам компании Америка успешно побеждает в войнах по всему миру. Но теперь пришло время применить технологию на американской земле. Алекс Мерфи — любящий муж, отец и отличный полицейский, оберегающий порядок в Детройте, получает на службе смертельные ранения. Специалисты ОмниКорпа, используя новейшие разработки, сохраняют ему жизнь. Алекс возвращается на службу в родной город не только с новыми сверхспособностями, но и с проблемами, с которыми не сталкивался ни один живой человек.

Дата мировой премьеры: 30 января 2014
Дата российской премьеры: 13 февраля 2014, «WDSSPR»
Дата выхода DVD релиза: 5 июня 2014, «Двадцатый Век Фокс СНГ»
Продолжительность: 01:57:29
Качество видео: WEB-DL [H.264/720p-LQ]
Видеокодек: Xvid
Битрейт видео: ~3824 kb/s
Размер кадра: 1280x534
Аудио #1: Русский: AC-3, 48.0 KHz, 2 ch, 256 Kbps, CBR
Аудио #2: Английский: AC-3, 48.0 KHz, 2 ch, 384 Kbps, CBR
Сэмпл: Скачать

MediaInfo:

Общее
Уникальный идентификатор : 251624244392440270573252777368701237314 (0xBD4D11134FC37B649ACA7880E445F842)
Полное имя : E:\Фильмы\Robokop.2014.Dt.WEB-DL.720p.mkv
Формат : Matroska
Версия формата : Version 2
Размер файла : 3,74 Гбайт
Продолжительность : 1 ч. 57 м.
Общий поток : 4554 Кбит/сек
Дата кодирования : UTC 2014-04-27 19:28:49
Программа кодирования : mkvmerge v6.9.1 ('Blue Panther') 64bit built on Apr 18 2014 18:23:38
Библиотека кодирования : libebml v1.3.0 + libmatroska v1.4.1
Видео
Идентификатор : 1
Формат : AVC
Формат/Информация : Advanced Video Codec
Профиль формата : High@L4.1
Параметр CABAC формата : Да
Параметр ReFrames формата : 4 кадра
Идентификатор кодека : V_MPEG4/ISO/AVC
Продолжительность : 1 ч. 57 м.
Битрейт : 3824 Кбит/сек
Ширина : 1280 пикселей
Высота : 534 пикселя
Соотношение сторон : 2,40:1
Режим частоты кадров : Постоянный
Частота кадров : 23,976 кадра/сек
Цветовое пространство : YUV
Субдискретизация насыщенности : 4:2:0
Битовая глубина : 8 бит
Тип развёртки : Прогрессивная
Бит/(Пиксели*Кадры) : 0.233
Размер потока : 3,14 Гбайт (84%)
Библиотека кодирования : x264 core 142 r2431+42 c69a006 tMod [8-bit@all X86_64]
Настройки программы : cabac=1 / ref=4 / deblock=1:0:0 / analyse=0x3:0x133 / me=umh / subme=2 / psy=1 / fade_compensate=0.00 / psy_rd=1.00:0.00 / mixed_ref=1 / me_range=16 / chroma_me=1 / trellis=2 / 8x8dct=1 / cqm=0 / deadzone=21,11 / fast_pskip=0 / chroma_qp_offset=-2 / threads=12 / lookahead_threads=4 / sliced_threads=0 / nr=0 / decimate=1 / interlaced=0 / bluray_compat=0 / constrained_intra=0 / fgo=0 / bframes=4 / b_pyramid=2 / b_adapt=2 / b_bias=0 / direct=1 / weightb=1 / open_gop=0 / weightp=2 / keyint=240 / keyint_min=23 / scenecut=40 / intra_refresh=0 / rc=crf / mbtree=0 / crf=17.5000 / qcomp=0.60 / qpmin=0:0:0 / qpmax=69:69:69 / qpstep=4 / ip_ratio=1.40 / pb_ratio=1.30 / aq=1:1.00 / aq-sensitivity=10.00 / aq-factor=1.00:1.00:1.00 / aq2=0 / aq3=0
Язык : English
Default : Да
Forced : Нет
Аудио #1
Идентификатор : 2
Формат : AC-3
Формат/Информация : Audio Coding 3
Расширение режима : CM (complete main)
Параметр Endianness формата : Big
Идентификатор кодека : A_AC3
Продолжительность : 1 ч. 57 м.
Вид битрейта : Постоянный
Битрейт : 256 Кбит/сек
Каналы : 2 канала
Расположение каналов : Front: L R
Частота : 48,0 КГц
Битовая глубина : 16 бит
Метод сжатия : С потерями
Размер потока : 215 Мбайт (6%)
Язык : Russian
Default : Да
Forced : Нет
Аудио #2
Идентификатор : 3
Формат : AC-3
Формат/Информация : Audio Coding 3
Расширение режима : CM (complete main)
Параметр Endianness формата : Big
Идентификатор кодека : A_AC3
Продолжительность : 1 ч. 57 м.
Вид битрейта : Постоянный
Битрейт : 384 Кбит/сек
Каналы : 2 канала
Расположение каналов : Front: L R
Частота : 48,0 КГц
Битовая глубина : 16 бит
Метод сжатия : С потерями
Размер потока : 323 Мбайт (8%)
Язык : English
Default : Нет
Forced : Нет
Скриншоты:

[Цитировать]

Топик был перенесен из форума Новинки кинопроката в форум Новинки кинопроката (HD Video)
Henkok



Показать сообщения:    

Текущее время: 07-Дек 21:19

Часовой пояс: UTC + 3


Вы не можете начинать темы
Вы не можете отвечать на сообщения
Вы не можете редактировать свои сообщения
Вы не можете удалять свои сообщения
Вы не можете голосовать в опросах
Вы не можете прикреплять файлы к сообщениям
Вы не можете скачивать файлы

!ВНИМАНИЕ!
Сайт не предоставляет электронные версии произведений, а занимается лишь коллекционированием и каталогизацией ссылок, присылаемых и публикуемых на форуме нашими читателями. Если вы являетесь правообладателем какого-либо представленного материала и не желаете, чтобы ссылка на него находилась в нашем каталоге, свяжитесь с нами, и мы незамедлительно удалим ее. Файлы для обмена на трекере предоставлены пользователями сайта, и администрация не несет ответственности за их содержание. Просьба не заливать файлы, защищенные авторскими правами, а также файлы нелегального содержания!