[ Сегодня идет свободное скачивание без начисления Download ]


Статистика раздачи
Нет
 
   
 
Top  
 
 
-Несносный дед / Jackass Presents: Bad Grandpa (2013) HDRip- Год выпуска: 2013
Производство: США
Жанр: Комедия
Режиссер: Джефф Треймейн
Продюсер: Дерек Фреда, Спайк Джонс, Джонни Ноксвил
Актеры: Джонни Ноксвил, Джексон Николл, Грег Харрис, Джорджина Кэйтс, Камбер Хейлик, Джилл Килл, Мэдисон Дэвис, Джордж Фонан, Грэси Мерседес, Мэрилинн Эллейн
Описание фильма:
86-летний старикан по имени Ирвинг Зисман путешествует по Америке с необычным компаньоном — восьмилетним «внуком» Билли.
По дороге заводной дедушка знакомит впечатлительного Билли с людьми, местами и ситуациями, которые вряд ли укладываются в рамки привычных представлений о воспитании. Парочка столкнется со стриптизерами, разъяренными участниками помпезного детского конкурса красоты и их не менее злыми мамашами, скорбящими посетителями панихиды, завсегдатаями бара для байкеров и другими ничего не подозревающими гражданами США.
Перевод: Дублированный (Лицензия)
Субтитры: Отсутствуют
Рейтинг MPAA: R (Лицам до 17 лет обязательно присутствие взрослого)
Возраст: 18+

Дата мировой премьеры: 23 октября 2013
Дата российской премьеры: 23 января 2014, «Централ Партнершип»
Дата выхода DVD релиза: 19 мая 2014, «Новый Диск»
Дата выхода Blu-Ray релиза: 19 мая 2014, «Новый Диск»
Продолжительность: 01:42:13
Качество видео: HDRip
Примечание: Расширенная версия длиннее на 10 минут. Полный перевод.
Видеокодек: Xvid
Битрейт видео: ~1519 Kbit/s
Размер кадра: 720x400
Aудио: AC-3, 48.0 KHz, 6 ch, 384 Kbps, CBR (Русский, Дубляж)

Знаете ли вы, что...

• Хотя сцены со Спайком Джонсом и не вошли в финальную версию фильма, его имя указано в финальных титрах, а удаленные сцены с его участием можно увидеть на DVD/Blu-Ray.
• Первый фильм «Чудаков», в написании сценария которого участвовали люди не из команды «Чудаков». Сценаристы Факс Бар и Адам Смолл ранее писали сценарий пародии на «Чудаков» для своего шоу «MADtv».
• Несмотря на юный возраст, Джексон Николл на протяжении всех съемок практически всегда оставался в образе.
• Джонни Ноксвил заявил, что его персонаж, Ирвинг Зисман, представляет собой сочетание его собственного отца и более извращенной версии самого Джонни.
• Марка автомобиля старика Ирвинга — это Lincoln, но вот руль в нем от авто Ford, что можно явно заметить с определенных ракурсов камеры.

Награды:

Оскар, 2014 год
Номинации (1):
• Лучший грим и прически
Премия канала «MTV», 2014 год
Номинации (2):
• Лучшая комедийная роль (Джонни Ноксвил)
• Самый безумный эпизод

MediaInfo:

Формат                                   : AVI
Формат/Информация                        : Audio Video Interleave
Размер файла                             : 1,37 Гбайт
Продолжительность                        : 1 ч. 42 м.
Общий поток                              : 1913 Кбит/сек
Название фильма                          : Jackass Presents Bad Grandpa
Программа кодирования                    : VirtualDubMod 1.5.10.2 (build 2540/release)
Видео
Идентификатор                            : 0
Формат                                   : MPEG-4 Visual
Профиль формата                          : Advanced Simple@L5
Параметр BVOP формата                    : 2
Параметр QPel формата                    : Нет
Параметр GMC формата                     : Без точки перехода
Параметр матрицы формата                 : Default (MPEG)
Идентификатор кодека                     : XVID
Идентификатор кодека/Подсказка           : XviD
Продолжительность                        : 1 ч. 42 м.
Битрейт                                  : 1519 Кбит/сек
Ширина                                   : 720 пикселей
Высота                                   : 400 пикселей
Соотношение сторон                       : 16:9
Частота кадров                           : 23,976 кадра/сек
Цветовое пространство                    : YUV
Субдискретизация насыщенности            : 4:2:0
Битовая глубина                          : 8 бит
Тип развёртки                            : Прогрессивная
Метод сжатия                             : С потерями
Бит/(Пиксели*Кадры)                      : 0.220
Размер потока                            : 1,08 Гбайт (79%)
Библиотека кодирования                   : XviD 1.2.1 (UTC 2008-12-04)
Аудио
Идентификатор                            : 1
Формат                                   : AC-3
Формат/Информация                        : Audio Coding 3
Расширение режима                        : CM (complete main)
Параметр Endianness формата              : Big
Идентификатор кодека                     : 2000
Продолжительность                        : 1 ч. 42 м.
Вид битрейта                             : Постоянный
Битрейт                                  : 384 Кбит/сек
Каналы                                   : 6 каналов
Расположение каналов                     : Front: L C R, Side: L R, LFE
Частота                                  : 48,0 КГц
Битовая глубина                          : 16 бит
Метод сжатия                             : С потерями
Размер потока                            : 281 Мбайт (20%)
Выравнивание                             : Разделение по промежуткам
Продолжительность промежутка             : 42  мс. (1,00 видеокадр)
Время предзагрузки промежутка            : 500  мс.
Скриншоты:

Время раздачи: 24/7 (до 10 скачавших)

[Цитировать]



Показать сообщения:    

Текущее время: 10-Дек 10:01

Часовой пояс: UTC + 3


Вы не можете начинать темы
Вы не можете отвечать на сообщения
Вы не можете редактировать свои сообщения
Вы не можете удалять свои сообщения
Вы не можете голосовать в опросах
Вы не можете прикреплять файлы к сообщениям
Вы не можете скачивать файлы

!ВНИМАНИЕ!
Сайт не предоставляет электронные версии произведений, а занимается лишь коллекционированием и каталогизацией ссылок, присылаемых и публикуемых на форуме нашими читателями. Если вы являетесь правообладателем какого-либо представленного материала и не желаете, чтобы ссылка на него находилась в нашем каталоге, свяжитесь с нами, и мы незамедлительно удалим ее. Файлы для обмена на трекере предоставлены пользователями сайта, и администрация не несет ответственности за их содержание. Просьба не заливать файлы, защищенные авторскими правами, а также файлы нелегального содержания!