[ Сегодня идет свободное скачивание без начисления Download ]


Статистика раздачи
Нет
 
   
 
Top  
 
 
-Этот неловкий момент / That Awkward Moment (2014) BDRip
«Когда ты понимаешь: добиться многого, значит: мыслить по-крупному»
- Год выпуска: 2014
Производство: США, Ninjas Runnin' Wild Productions, Treehouse Pictures
Жанр: Мелодрама, Комедия
Перевод: Дублированный [Лицензия]
Субтитры: Вшитые отключаемые
Язык субтитров: Английский
Дата мировой премьеры: 27 января 2014
Дата российской премьеры: 6 февраля 2014, «Парадиз»
Дата выхода DVD релиза: 22 апреля 2014, «Парадиз / Активижен»
Режиссер: Том Гормикэн
Продюсер: Скотт Аверсано, Джастин Наппи, Эндрю О’Коннор
Актеры: Зак Эфрон, Майлз Теллер, Майкл Б. Джордан, Имоджен Путс, Маккензи Дэвис, Джессика Лукас, Эддисон Тимлин, Джош Пэйс, Эвелина Обоза, Карен Людви
Описание фильма:
Джейсон, Дэниел и Майкл — типичные обитатели Манхеттена, красивые остроумные парни. После того, как одного из них бросает подружка, они клянутся больше никогда не заводить с девушками серьезных отношений. Но очень скоро, после кучи «неловких моментов», они встречают настоящую любовь. И как теперь быть с дружеской сделкой?

Продолжительность: 01:34:30
Качество видео: BDRip
Видеокодек: MPEG-4 AVC/H.264
Битрейт видео: 1360 kb/s
Размер кадра: 1024x426
Aудио #1: AC3, 48.0 KHz, 6 ch, 384 Kbps - Русский
Aудио #2: AC3, 48.0 KHz, 6 ch, 448 Kbps - Английский

MediaInfo:

General
Unique ID                                : 232577063130307364791330637366321921593 (0xAEF8B688DFB7D58EA0AC07F73592BE39)
Complete name                            : E:\Фильмы\Этот неловкий момент.2014.BDRip.mkv
Format                                   : Matroska
Format version                           : Version 4 / Version 2
File size                                : 1.45 GiB
Duration                                 : 1h 34mn
Overall bit rate                         : 2 195 Kbps
Encoded date                             : UTC 2014-04-28 10:06:20
Writing application                      : mkvmerge v6.1.0 ('Old Devil') built on Mar  4 2013 09:10:42
Writing library                          : libebml v1.3.0 + libmatroska v1.4.0
Video
ID                                       : 1
Format                                   : AVC
Format/Info                              : Advanced Video Codec
Format profile                           : [url=mailto:High@L4.1]High@L4.1[/url]
Format settings, CABAC                   : Yes
Format settings, ReFrames                : 10 frames
Codec ID                                 : V_MPEG4/ISO/AVC
Duration                                 : 1h 34mn
Bit rate                                 : 1 360 Kbps
Width                                    : 1 024 pixels
Height                                   : 426 pixels
Display aspect ratio                     : 2.40:1
Frame rate mode                          : Constant
Frame rate                               : 23.976 fps
Color space                              : YUV
Chroma subsampling                       : 4:2:0
Bit depth                                : 8 bits
Scan type                                : Progressive
Bits/(Pixel*Frame)                       : 0.130
Stream size                              : 892 MiB (60%)
Writing library                          : x264 core 142 r2431+42 c69a006 tMod [8-bit@4:2:0 X86_64]
Encoding settings                        : cabac=1 / ref=10 / deblock=1:-3:-3 / analyse=0x3:0x113 / me=umh / subme=11 / psy=1 / fade_compensate=0.00 / psy_rd=1.00:0.20 / mixed_ref=1 / me_range=32 / chroma_me=1 / trellis=2 / 8x8dct=1 / cqm=0 / deadzone=21,11 / fast_pskip=0 / chroma_qp_offset=-3 / threads=12 / lookahead_threads=3 / sliced_threads=0 / nr=0 / decimate=0 / interlaced=0 / bluray_compat=0 / constrained_intra=0 / fgo=0 / bframes=14 / b_pyramid=2 / b_adapt=2 / b_bias=0 / direct=3 / weightb=1 / open_gop=0 / weightp=2 / keyint=240 / keyint_min=23 / scenecut=40 / intra_refresh=0 / rc=2pass / mbtree=0 / bitrate=1360 / ratetol=1.0 / qcomp=0.60 / qpmin=0:0:0 / qpmax=69:69:69 / qpstep=4 / cplxblur=20.0 / qblur=0.5 / ip_ratio=1.40 / pb_ratio=1.30 / aq=4:0.80 / aq-sensitivity=10.00 / aq-factor=1.00:1.00:1.00 / aq2=0 / aq3=0
Default                                  : Yes
Forced                                   : Yes
Audio #1
ID                                       : 2
Format                                   : AC-3
Format/Info                              : Audio Coding 3
Mode extension                           : CM (complete main)
Format settings, Endianness              : Big
Codec ID                                 : A_AC3
Duration                                 : 1h 34mn
Bit rate mode                            : Constant
Bit rate                                 : 384 Kbps
Channel(s)                               : 6 channels
Channel positions                        : Front: L C R, Side: L R, LFE
Sampling rate                            : 48.0 KHz
Bit depth                                : 16 bits
Compression mode                         : Lossy
Stream size                              : 260 MiB (17%)
Title                                    : Dub
Language                                 : Russian
Default                                  : Yes
Forced                                   : Yes
Audio #2
ID                                       : 3
Format                                   : AC-3
Format/Info                              : Audio Coding 3
Mode extension                           : CM (complete main)
Format settings, Endianness              : Big
Codec ID                                 : A_AC3
Duration                                 : 1h 34mn
Bit rate mode                            : Constant
Bit rate                                 : 448 Kbps
Channel(s)                               : 6 channels
Channel positions                        : Front: L C R, Side: L R, LFE
Sampling rate                            : 48.0 KHz
Bit depth                                : 16 bits
Compression mode                         : Lossy
Stream size                              : 303 MiB (20%)
Language                                 : English
Default                                  : No
Forced                                   : No
Text
ID                                       : 4
Format                                   : UTF-8
Codec ID                                 : S_TEXT/UTF8
Codec ID/Info                            : UTF-8 Plain Text
Language                                 : English
Default                                  : No
Forced                                   : No
Menu
00:00:00.000                             : en:Chapter 1
00:05:35.251                             : en:Chapter 2
00:11:40.658                             : en:Chapter 3
00:17:15.534                             : en:Chapter 4
00:23:20.649                             : en:Chapter 5
00:30:05.637                             : en:Chapter 6
00:36:32.607                             : en:Chapter 7
00:42:17.576                             : en:Chapter 8
00:49:23.126                             : en:Chapter 9
00:55:55.935                             : en:Chapter 10
01:02:36.210                             : en:Chapter 11
01:06:40.079                             : en:Chapter 12
01:09:56.734                             : en:Chapter 13
01:16:02.849                             : en:Chapter 14
01:22:59.349                             : en:Chapter 15
01:28:29.304                             : en:Chapter 16
Скриншоты:
Время раздачи: Круглосуточно (До 5-ти скачавших)

[Цитировать]



Показать сообщения:    

Текущее время: 24-Апр 13:29

Часовой пояс: UTC + 6


Вы не можете начинать темы
Вы не можете отвечать на сообщения
Вы не можете редактировать свои сообщения
Вы не можете удалять свои сообщения
Вы не можете голосовать в опросах
Вы не можете прикреплять файлы к сообщениям
Вы не можете скачивать файлы

!ВНИМАНИЕ!
Сайт не предоставляет электронные версии произведений, а занимается лишь коллекционированием и каталогизацией ссылок, присылаемых и публикуемых на форуме нашими читателями. Если вы являетесь правообладателем какого-либо представленного материала и не желаете, чтобы ссылка на него находилась в нашем каталоге, свяжитесь с нами, и мы незамедлительно удалим ее. Файлы для обмена на трекере предоставлены пользователями сайта, и администрация не несет ответственности за их содержание. Просьба не заливать файлы, защищенные авторскими правами, а также файлы нелегального содержания!