[ Сегодня идет свободное скачивание без начисления Download ]


Статистика раздачи
Нет
 
   
 
Top  
 
 
-Опасная игра / Real Playing Game (2013) DVDRip- Год выпуска: 2013
Производство: Португалия, MGN Filmes
Жанр: Фантастика, Боевик, Приключения
Перевод: Одноголосый закадровый, любительский
Озвучка / Автор перевода: R.A.I.M
Субтитры: Отсутствуют
Режиссер: Тино Наварро, David Rebord?o
Продюсер: Тино Наварро
Актеры: Рутгер Хауэр, Аликс Вилтон Риган, Дафна Фернандес, Клаудиа Сванн, Сорая Чавес, Виктория Герра, Кристофер Го, Киэн Бэрри, Педру Гранжер, Крис Ташима
Описание фильма:
В не слишком далеком будущем, престарелый мультимиллионер Стив Батьер, который, к тому же, неизлечимо болен, принял предложение компании RPG, которое состояло в том, что группа клиентов получает возможность "обрести молодое тело". В течении 10 часов 10 миллионеров со всего мира окажутся снова молодыми и здоровыми. Но у этой "игры" есть вполне реальные правила - каждый час кто-то из них может умереть.В возрасте 23 лет, Стив готов пойти на все, чтобы сохранить эту вечную молодость...

Дата мировой премьеры: 29 августа 2013
Продолжительность: 01:38:11
Качество видео: DVDRip
Видеокодек: Xvid
Битрейт видео: ~2074 Кбит/с
Размер кадра: 720x304
Аудио#1: Русский: AC-3, 44.1 KHz, 6 ch, 448 Kbps, CBR
Аудио#2: Английский: AC-3, 48.0 KHz, 6 ch, 448 Kbps, CBR
Сэмпл: Скачать

MediaInfo:

Общее
Полное имя : D:\Фильмы\Opasnaya.igra.DVDRip.2100MB.avi
Формат : AVI
Формат/Информация : Audio Video Interleave
Профиль формата : OpenDML
Размер файла : 2,05 Гбайт
Продолжительность : 1 ч. 38 м.
Общий поток : 2989 Кбит/сек
Название фильма : Real Playing Game.2013.DVDRip.2100MB
Жанр : Fantasy/Action/Adventure/
Программа кодирования : VirtualDubMod 1.5.4.1 (build 2066/release)
Формат оригинала/Имя : Movie
Примечание : Rus.L1.[R.A.I.M]
Видео
Идентификатор : 0
Формат : MPEG-4 Visual
Профиль формата : Simple@L1
Параметр BVOP формата : Нет
Параметр QPel формата : Нет
Параметр GMC формата : Без точки перехода
Параметр матрицы формата : Default (H.263)
Идентификатор кодека : DX50
Идентификатор кодека/Подсказка : DivX 5
Продолжительность : 1 ч. 38 м.
Битрейт : 2074 Кбит/сек
Ширина : 720 пикселей
Высота : 304 пикселя
Соотношение сторон : 2,35:1
Частота кадров : 25,000 кадров/сек
Цветовое пространство : YUV
Субдискретизация насыщенности : 4:2:0
Битовая глубина : 8 бит
Тип развёртки : Прогрессивная
Метод сжатия : С потерями
Бит/(Пиксели*Кадры) : 0.379
Размер потока : 1,42 Гбайт (69%)
Библиотека кодирования : Lavc51.40.4
Аудио #1
Идентификатор : 1
Формат : AC-3
Формат/Информация : Audio Coding 3
Расширение режима : CM (complete main)
Параметр Endianness формата : Big
Идентификатор кодека : 2000
Продолжительность : 1 ч. 38 м.
Вид битрейта : Постоянный
Битрейт : 448 Кбит/сек
Каналы : 6 каналов
Расположение каналов : Front: L C R, Side: L R, LFE
Частота : 44,1 КГц
Битовая глубина : 16 бит
Метод сжатия : С потерями
Размер потока : 315 Мбайт (15%)
Выравнивание : Разделение по промежуткам
Продолжительность промежутка : 40 мс. (1,00 видеокадр)
Время предзагрузки промежутка : 500 мс.
Аудио #2
Идентификатор : 2
Формат : AC-3
Формат/Информация : Audio Coding 3
Расширение режима : CM (complete main)
Параметр Endianness формата : Big
Идентификатор кодека : 2000
Продолжительность : 1 ч. 38 м.
Вид битрейта : Постоянный
Битрейт : 448 Кбит/сек
Каналы : 6 каналов
Расположение каналов : Front: L C R, Side: L R, LFE
Частота : 48,0 КГц
Битовая глубина : 16 бит
Метод сжатия : С потерями
Размер потока : 315 Мбайт (15%)
Выравнивание : Разделение по промежуткам
Продолжительность промежутка : 40 мс. (1,00 видеокадр)
Время предзагрузки промежутка : 500 мс.
Скриншоты:
Время раздачи: 24/7
(до 5 скачавших)

[Цитировать]



Показать сообщения:    

Текущее время: 08-Дек 09:01

Часовой пояс: UTC + 3


Вы не можете начинать темы
Вы не можете отвечать на сообщения
Вы не можете редактировать свои сообщения
Вы не можете удалять свои сообщения
Вы не можете голосовать в опросах
Вы не можете прикреплять файлы к сообщениям
Вы не можете скачивать файлы

!ВНИМАНИЕ!
Сайт не предоставляет электронные версии произведений, а занимается лишь коллекционированием и каталогизацией ссылок, присылаемых и публикуемых на форуме нашими читателями. Если вы являетесь правообладателем какого-либо представленного материала и не желаете, чтобы ссылка на него находилась в нашем каталоге, свяжитесь с нами, и мы незамедлительно удалим ее. Файлы для обмена на трекере предоставлены пользователями сайта, и администрация не несет ответственности за их содержание. Просьба не заливать файлы, защищенные авторскими правами, а также файлы нелегального содержания!