[ Сегодня идет свободное скачивание без начисления Download ]


Статистика раздачи
Нет
 
   
 
Top  
 
 
-Патрик / Patrick (2013) HDRip [H.264]- Год выпуска: 2013
Производство: Австралия, F.G. Film Productions, Film Victoria, Head Gear Films, Melbourne International Film Festival, Metrol Technology, Screen Australia, Screen Queensland
Жанр: Ужасы, Фантастика, Триллер
Перевод: Двуголосый закадровый, любительский (DeadSno, den904)
Субтитры: Отсутствуют
Дата мировой премьеры: 27 июля 2013
Режиссер: Марк Хартли
Продюсер: Энтони И. Джиннане, Джефф Харрисон, Фил Хант
Актеры: Чарльз Дэнс, Рэйчел Гриффитс, Шарни Винсон, Пета Сержан, Дамон Гамо, Мартин Крюз, Элиза Тейлор, Симона Бьюкэнэн, Шэйн Нэгл, Крис Фортуна
Описание фильма:
Убив мать и ее любовника несколько лет назад, Патрик впадает в коматозное состояние и становится пациентом палаты N15 в частной психиатрической клинике доктора Роже, который использует его в качестве подопытного кролика в своих странных исследованиях о жизни и смерти. Когда Кэти, медсестра недавно расставшаяся со своим бойфрендом, начинает работать в клинике, ей поручают заботиться о Патрике. Девушка обеспокоена методами лечения доктора Роже и каким-то образом чувствует, что пациент пытается установить связь с ней.

Продолжительность: 01:35:34
Качество видео: HDRip
Видеокодек: MPEG-4 AVC/H.264
Битрейт видео: 1722 kb/s
Размер кадра: 1024x426
Аудиокодек: AC3 5.1
Битрейт аудио: 448 kb/s

MI

Общее
Уникальный идентификатор                 : 191394009712388027177549058983490331648 (0x8FFD253C16E941A886B3B56F42B1A400)
Полное имя                               : D:\Мужа\Patrik.2013.x264.HDRip.NNM-CLUB.mkv
Формат                                   : Matroska
Версия формата                           : Version 4 / Version 2
Размер файла                             : 1,45 Гбайт
Продолжительность                        : 1 ч. 35 м.
Общий поток                              : 2170 Кбит/сек
Дата кодирования                         : UTC 2014-05-01 13:22:05
Программа кодирования                    : mkvmerge v6.8.0 ('Theme for Great Cities') 32bit built on Mar  2 2014 21:27:07
Библиотека кодирования                   : libebml v1.3.0 + libmatroska v1.4.1
Видео
Идентификатор                            : 1
Формат                                   : AVC
Формат/Информация                        : Advanced Video Codec
Профиль формата                          : [url=mailto:[email protected]][email protected][/url]
Параметр CABAC формата                   : Да
Параметр ReFrames формата                : 11 кадров
Идентификатор кодека                     : V_MPEG4/ISO/AVC
Продолжительность                        : 1 ч. 35 м.
Битрейт                                  : 1722 Кбит/сек
Ширина                                   : 1024 пикселя
Высота                                   : 426 пикселей
Соотношение сторон                       : 2,40:1
Режим частоты кадров                     : Постоянный
Частота кадров                           : 24,000 кадра/сек
Цветовое пространство                    : YUV
Субдискретизация насыщенности            : 4:2:0
Битовая глубина                          : 8 бит
Тип развёртки                            : Прогрессивная
Бит/(Пиксели*Кадры)                      : 0.164
Размер потока                            : 1,12 Гбайт (77%)
Библиотека кодирования                   : x264 core 142 r2409 d6b4e63
Настройки программы                      : cabac=1 / ref=11 / deblock=1:-2:-1 / analyse=0x3:0x133 / me=umh / subme=9 / psy=1 / psy_rd=1.05:0.20 / mixed_ref=1 / me_range=24 / chroma_me=1 / trellis=2 / 8x8dct=1 / cqm=0 / deadzone=21,11 / fast_pskip=0 / chroma_qp_offset=-3 / threads=12 / lookahead_threads=3 / sliced_threads=0 / nr=0 / decimate=1 / interlaced=0 / bluray_compat=0 / constrained_intra=0 / bframes=10 / b_pyramid=2 / b_adapt=2 / b_bias=0 / direct=3 / weightb=1 / open_gop=0 / weightp=2 / keyint=240 / keyint_min=23 / scenecut=40 / intra_refresh=0 / rc=2pass / mbtree=0 / bitrate=1722 / ratetol=1.0 / qcomp=0.60 / qpmin=0 / qpmax=69 / qpstep=4 / cplxblur=20.0 / qblur=0.5 / ip_ratio=1.40 / pb_ratio=1.30 / aq=2:0.80
Язык                                     : English
Default                                  : Да
Forced                                   : Нет
Аудио
Идентификатор                            : 2
Формат                                   : AC-3
Формат/Информация                        : Audio Coding 3
Расширение режима                        : CM (complete main)
Параметр Endianness формата              : Big
Идентификатор кодека                     : A_AC3
Продолжительность                        : 1 ч. 35 м.
Вид битрейта                             : Постоянный
Битрейт                                  : 448 Кбит/сек
Каналы                                   : 6 каналов
Расположение каналов                     : Front: L C R, Side: L R, LFE
Частота                                  : 48,0 КГц
Битовая глубина                          : 16 бит
Метод сжатия                             : С потерями
Размер потока                            : 306 Мбайт (21%)
Язык                                     : Russian
Default                                  : Да
Forced                                   : Нет
Скриншоты: Время раздачи: 24/7,
до 5 скачавших.

[Цитировать]



Показать сообщения:    

Текущее время: 06-Дек 17:09

Часовой пояс: UTC + 3


Вы не можете начинать темы
Вы не можете отвечать на сообщения
Вы не можете редактировать свои сообщения
Вы не можете удалять свои сообщения
Вы не можете голосовать в опросах
Вы не можете прикреплять файлы к сообщениям
Вы не можете скачивать файлы

!ВНИМАНИЕ!
Сайт не предоставляет электронные версии произведений, а занимается лишь коллекционированием и каталогизацией ссылок, присылаемых и публикуемых на форуме нашими читателями. Если вы являетесь правообладателем какого-либо представленного материала и не желаете, чтобы ссылка на него находилась в нашем каталоге, свяжитесь с нами, и мы незамедлительно удалим ее. Файлы для обмена на трекере предоставлены пользователями сайта, и администрация не несет ответственности за их содержание. Просьба не заливать файлы, защищенные авторскими правами, а также файлы нелегального содержания!