[ Сегодня идет свободное скачивание без начисления Download ]


Статистика раздачи
Нет
 
   
 
Top  
 
 
-Помпеи / Pompeii (2014) BDRip 3D
«Некоторые истории пишутся кровью»
- Год выпуска: 2014
Производство: Канада, Германия / FilmDistrict
Жанр: Боевик, драма, мелодрама, приключения
Описание фильма:
История любви раба Майло и благородной Кассии, обрученной с римским сенатором, на фоне извержения Везувия, которое навсегда стерло с лица земли древнеримский город Помпеи…
Режиссер: Пол У. С. Андерсон / Paul W.S. Anderson
Продюсер: Пол У. С. Андерсон, Джереми Болт, Дон Кармоди
Актеры: Саша Ройз, Кэрри-Энн Мосс, Адевале Акинойе-Агбаже, Эмили Браунинг, Джессика Лукас, Кифер Сазерленд, Кит Харингтон, Джо Пинг, Джаред Харрис, Карри Грэм
Язык: Русский, английский
Перевод: Дублированный [чистый звук]
Вид субтитров: Вшитые отключаемые
Язык субтитров: Английский (Full, SDH)

Дата мировой премьеры: 18 февраля 2014
Дата российской премьеры: 19 февраля 2014, «Парадиз»
Дата выхода DVD релиза: 20 мая 2014, «Парадиз / Активижен»
Дата выхода Blu-Ray релиза: 20 мая 2014, «Парадиз / Активижен»
Рейтинг MPAA: PG-13
Возраст: 12+
Продолжительность: 01:44:59
Качество видео: BDRip 3D
Видео: MPEG-4 AVC/H.264, 1920x1080, ~11900 kbps, 0.240 bit/pixel, 23.976 fps
Аудио 1: AC3 2.0, 320 kbps, 48 KHz, 16-bit [Русский - дублированный]
Аудио 2: DTS 5.1, 1536 kbps, 48 kHz, 24-bit [Английский - оригинал]

Отчёт MediaInfo

Полное имя : D:\Помпеи-Pompeii.(2014).BDRip.[1080p].3D.mkv
Формат : Matroska
Версия формата : Version 2
Размер файла : 10,3 Гбайт
Продолжительность : 1 ч. 45 м.
Общий поток : 14,0 Мбит/сек
Название фильма : Pompeii (2014)
Дата кодирования : UTC 2014-05-03 00:37:01
Программа кодирования : mkvmerge v5.7.0 ('The Whirlwind') built on Aug 7 2012 14:11:40
Библиотека кодирования : libebml v1.2.3 + libmatroska v1.3.0
Видео
Идентификатор : 1
Формат : AVC
Формат/Информация : Advanced Video Codec
Профиль формата : [email protected]
Параметр CABAC формата : Да
Параметр ReFrames формата : 4 кадра
Идентификатор кодека : V_MPEG4/ISO/AVC
Продолжительность : 1 ч. 45 м.
Битрейт : 11,9 Мбит/сек
Ширина : 1920 пикселей
Высота : 1080 пикселей
Соотношение сторон : 16:9
Режим частоты кадров : Постоянный
Частота кадров : 23,976 кадра/сек
Цветовое пространство : YUV
Субдискретизация насыщенности : 4:2:0
Битовая глубина : 8 бит
Тип развёртки : Прогрессивная
Бит/(Пиксели*Кадры) : 0.240
Размер потока : 8,74 Гбайт (85%)
Заголовок : Помпеи-Pompeii.(2014).BDRip.[1080p].3D
Язык : English
Default : Да
Forced : Нет
Аудио #1
Идентификатор : 2
Формат : AC-3
Формат/Информация : Audio Coding 3
Расширение режима : CM (complete main)
Параметр Endianness формата : Big
Идентификатор кодека : A_AC3
Продолжительность : 1 ч. 45 м.
Вид битрейта : Постоянный
Битрейт : 320 Кбит/сек
Каналы : 2 канала
Расположение каналов : Front: L R
Частота : 48,0 КГц
Битовая глубина : 16 бит
Метод сжатия : С потерями
Размер потока : 240 Мбайт (2%)
Заголовок : AC3 2.0 / 320 kbps / Dub
Язык : Russian
Default : Да
Forced : Нет
Аудио #2
Идентификатор : 3
Формат : DTS
Формат/Информация : Digital Theater Systems
Идентификатор кодека : A_DTS
Продолжительность : 1 ч. 45 м.
Вид битрейта : Постоянный
Битрейт : 1510 Кбит/сек
Каналы : 6 каналов
Расположение каналов : Front: L C R, Side: L R, LFE
Частота : 48,0 КГц
Битовая глубина : 24 бит
Метод сжатия : С потерями
Размер потока : 1,11 Гбайт (11%)
Заголовок : DTS 5.1 / 1536 kbps / Original
Язык : English
Default : Нет
Forced : Нет
Текст #1
Идентификатор : 4
Формат : UTF-8
Идентификатор кодека : S_TEXT/UTF8
Идентификатор кодека/Информация : UTF-8 Plain Text
Заголовок : Full
Язык : English
Default : Нет
Forced : Нет
Текст #2
Идентификатор : 5
Формат : UTF-8
Идентификатор кодека : S_TEXT/UTF8
Идентификатор кодека/Информация : UTF-8 Plain Text
Заголовок : SDH
Язык : English
Default : Нет
Forced : Нет
Меню
00:00:00.000 : en:00:00:00.000
00:05:27.077 : en:00:05:27.077
00:09:51.674 : en:00:09:51.674
00:15:58.457 : en:00:15:58.457
00:19:52.858 : en:00:19:52.858
00:26:45.103 : en:00:26:45.103
00:32:36.621 : en:00:32:36.621
00:38:18.838 : en:00:38:18.838
00:47:35.811 : en:00:47:35.811
00:52:17.718 : en:00:52:17.718
01:03:25.218 : en:01:03:25.218
01:09:02.930 : en:01:09:02.930
01:17:27.309 : en:01:17:27.309
01:23:46.521 : en:01:23:46.521
01:30:04.149 : en:01:30:04.149
01:35:08.119 : en:01:35:08.119
Скриншоты:

[Цитировать]



Показать сообщения:    

Текущее время: 05-Дек 03:34

Часовой пояс: UTC + 3


Вы не можете начинать темы
Вы не можете отвечать на сообщения
Вы не можете редактировать свои сообщения
Вы не можете удалять свои сообщения
Вы не можете голосовать в опросах
Вы не можете прикреплять файлы к сообщениям
Вы не можете скачивать файлы

!ВНИМАНИЕ!
Сайт не предоставляет электронные версии произведений, а занимается лишь коллекционированием и каталогизацией ссылок, присылаемых и публикуемых на форуме нашими читателями. Если вы являетесь правообладателем какого-либо представленного материала и не желаете, чтобы ссылка на него находилась в нашем каталоге, свяжитесь с нами, и мы незамедлительно удалим ее. Файлы для обмена на трекере предоставлены пользователями сайта, и администрация не несет ответственности за их содержание. Просьба не заливать файлы, защищенные авторскими правами, а также файлы нелегального содержания!