[ Сегодня идет свободное скачивание без начисления Download ]


Статистика раздачи
Нет
 
   
 
Top  
 
 
-Китайская головоломка / Casse-t?te chinois / Chinese Puzzle (2013) BDRip- Год выпуска: 2013
Производство: Франция
Жанр: Драма, мелодрама, комедия
Режиссер: Седрик Клапиш
Продюсер Седрик Клапиш, Бруно Леви, Рафаэль Бенолье
Актеры: Ромен Дюрис, Одри Тоту, Сесиль Де Франс, Келли Райлли, Сандрин Холт, Флоре Бонавентура, Йохен Хаэгеле, Бенуа Жако, Пабло Мюнье-Жакоб, Марго Мансар
Описание фильма:
Ксавье, покуролесивший в молодости в поисках идеальной женщины, в тридцать с копейками, казалось, успокоился: теперь он женат на англичанке Венди, с которой учился когда-то в барселонском университете, у них двое детей. Но вдруг Венди решила, взяв детей, уехать в Нью-Йорк. Через несколько месяцев и Ксавье последовал за семьей.
Перевод: Дублированный (Line)
Субтитры: Вшитые отключаемые
Язык субтитров: Английский, Французский
Рейтинг MPAA: R (лицам до 17 лет обязательно присутствие взрослого)
Возраст: 16+

Дата мировой премьеры: 23 августа 2013
Дата российской премьеры: 3 апреля 2014, «Cinema Prestige»
Дата выхода DVD релиза: 13 мая 2014, «CD Land»
Продолжительность: 01:57:16
Качество видео: BDRip [720p]
Видеокодек: MPEG-4 AVC/H.264
Битрейт видео: ~5153 kbps
Размер кадра: 1280x688, 23.976 fps
Аудио #1: AC3, 48.0 KHz, 2 ch, 192 Kbps, CBR (Русский, Дубляж)
Аудио #2: AC3, 48.0 KHz, 6 ch, 640 Kbps, CBR (Французский)

MediaInfo:

Формат                                   : Matroska
Версия формата                           : Version 2
Размер файла                             : 4,90 Гбайт
Продолжительность                        : 1 ч. 57 м.
Общий поток                              : 5985 Кбит/сек
Название фильма                          : Chinese Puzzle (2013)
Дата кодирования                         : UTC 2014-05-06 20:02:08
Программа кодирования                    : mkvmerge v6.9.1 ('Blue Panther') 64bit built on Apr 18 2014 18:23:38
Библиотека кодирования                   : libebml v1.3.0 + libmatroska v1.4.1
Видео
Идентификатор                            : 1
Формат                                   : AVC
Формат/Информация                        : Advanced Video Codec
Профиль формата                          : [url=mailto:[email protected]][email protected][/url]
Параметр CABAC формата                   : Да
Параметр ReFrames формата                : 5 кадров
Идентификатор кодека                     : V_MPEG4/ISO/AVC
Продолжительность                        : 1 ч. 57 м.
Битрейт                                  : 5153 Кбит/сек
Ширина                                   : 1280 пикселей
Высота                                   : 688 пикселей
Соотношение сторон                       : 1,85:1
Режим частоты кадров                     : Постоянный
Частота кадров                           : 24,000 кадра/сек
Цветовое пространство                    : YUV
Субдискретизация насыщенности            : 4:2:0
Битовая глубина                          : 8 бит
Тип развёртки                            : Прогрессивная
Бит/(Пиксели*Кадры)                      : 0.244
Размер потока                            : 4,12 Гбайт (84%)
Библиотека кодирования                   : x264 core 142 r2409 d6b4e63
Настройки программы                      : cabac=1 / ref=5 / deblock=1:0:0 / analyse=0x3:0x133 / me=umh / subme=8 / psy=1 / psy_rd=1.00:0.00 / mixed_ref=1 / me_range=16 / chroma_me=1 / trellis=1 / 8x8dct=1 / cqm=0 / deadzone=21,11 / fast_pskip=0 / chroma_qp_offset=-2 / threads=12 / lookahead_threads=2 / sliced_threads=0 / nr=0 / decimate=1 / interlaced=0 / bluray_compat=0 / constrained_intra=0 / bframes=3 / b_pyramid=2 / b_adapt=2 / b_bias=0 / direct=3 / weightb=1 / open_gop=0 / weightp=2 / keyint=250 / keyint_min=24 / scenecut=40 / intra_refresh=0 / rc_lookahead=50 / rc=2pass / mbtree=1 / bitrate=5153 / ratetol=1.0 / qcomp=0.60 / qpmin=0 / qpmax=69 / qpstep=4 / cplxblur=20.0 / qblur=0.5 / ip_ratio=1.40 / aq=1:1.00
Язык                                     : English
Default                                  : Да
Forced                                   : Нет
Аудио #1
Идентификатор                            : 2
Формат                                   : AC-3
Формат/Информация                        : Audio Coding 3
Расширение режима                        : CM (complete main)
Параметр Endianness формата              : Big
Идентификатор кодека                     : A_AC3
Продолжительность                        : 1 ч. 57 м.
Вид битрейта                             : Постоянный
Битрейт                                  : 192 Кбит/сек
Каналы                                   : 2 канала
Расположение каналов                     : Front: L R
Частота                                  : 48,0 КГц
Битовая глубина                          : 16 бит
Метод сжатия                             : С потерями
Размер потока                            : 161 Мбайт (3%)
Заголовок                                : Line
Язык                                     : Russian
Default                                  : Да
Forced                                   : Нет
Аудио #2
Идентификатор                            : 3
Формат                                   : AC-3
Формат/Информация                        : Audio Coding 3
Расширение режима                        : CM (complete main)
Параметр Endianness формата              : Big
Идентификатор кодека                     : A_AC3
Продолжительность                        : 1 ч. 57 м.
Вид битрейта                             : Постоянный
Битрейт                                  : 640 Кбит/сек
Каналы                                   : 6 каналов
Расположение каналов                     : Front: L C R, Side: L R, LFE
Частота                                  : 48,0 КГц
Битовая глубина                          : 16 бит
Метод сжатия                             : С потерями
Размер потока                            : 537 Мбайт (11%)
Заголовок                                : French
Язык                                     : French
Default                                  : Нет
Forced                                   : Нет
Текст #1
Идентификатор                            : 4
Формат                                   : UTF-8
Идентификатор кодека                     : S_TEXT/UTF8
Идентификатор кодека/Информация          : UTF-8 Plain Text
Язык                                     : Finnish
Default                                  : Нет
Forced                                   : Нет
Текст #2
Идентификатор                            : 5
Формат                                   : UTF-8
Идентификатор кодека                     : S_TEXT/UTF8
Идентификатор кодека/Информация          : UTF-8 Plain Text
Язык                                     : English
Default                                  : Нет
Forced                                   : Нет
Меню
00:00:00.000                             : en:00:00:00.000
00:09:09.583                             : en:00:09:09.583
00:18:13.875                             : en:00:18:13.875
00:24:56.125                             : en:00:24:56.125
00:37:13.833                             : en:00:37:13.833
00:46:43.542                             : en:00:46:43.542
00:55:17.083                             : en:00:55:17.083
01:04:30.500                             : en:01:04:30.500
01:16:34.625                             : en:01:16:34.625
01:23:52.667                             : en:01:23:52.667
01:35:12.292                             : en:01:35:12.292
01:46:16.792                             : en:01:46:16.792
Скриншоты:

Время раздачи: 24/7 (до 10 скачавших)

[Цитировать]



Показать сообщения:    

Текущее время: 04-Дек 01:53

Часовой пояс: UTC + 3


Вы не можете начинать темы
Вы не можете отвечать на сообщения
Вы не можете редактировать свои сообщения
Вы не можете удалять свои сообщения
Вы не можете голосовать в опросах
Вы не можете прикреплять файлы к сообщениям
Вы не можете скачивать файлы

!ВНИМАНИЕ!
Сайт не предоставляет электронные версии произведений, а занимается лишь коллекционированием и каталогизацией ссылок, присылаемых и публикуемых на форуме нашими читателями. Если вы являетесь правообладателем какого-либо представленного материала и не желаете, чтобы ссылка на него находилась в нашем каталоге, свяжитесь с нами, и мы незамедлительно удалим ее. Файлы для обмена на трекере предоставлены пользователями сайта, и администрация не несет ответственности за их содержание. Просьба не заливать файлы, защищенные авторскими правами, а также файлы нелегального содержания!