[ Сегодня идет свободное скачивание без начисления Download ]


Статистика раздачи
Нет
 
   
 
Top  
 
 
Самая одинокая планета / The Loneliest Planet-«Паломничество из ниоткуда в никуда»- Страна: США, Германия
Студия: Flying Moon Filmproduktion / Parts and Labor / Van Hoy/Knudsen Productions / Wild Invention
Жанр: триллер
Год выпуска: 2011
Продолжительность: 01:48:39-Перевод: Профессиональный (многоголосый закадровый) [Лицензия]
Cубтитры: нет
Оригинальная аудиодорожка: нет-Режиссер: Джулия Локтев / Julia Loktev
В ролях: Хани Фюрстенберг, Гаэль Гарсия Берналь, Бидзина Гуджабидзе-Описание: Картина рассказывает о двух странствующих влюбленных, Алексе и Нике, покоряющих возвышенности Грузии. Пару сопровождает гид Дато, который помогает им правильно сориентироваться в окружающих живописных ландшафтах. Путешествие героев фильма проходит вполне мирно и спокойно, пока не происходит случайная встреча с тремя крестьянами. Случается незначительный, казалось бы, инцидент, последствия которого не заставят себя ждать….- -Исходник: DVD9
Качество видео: DVDRip
Формат видео: AVI-Видео: 608x368 (1.65:1), 25 fps, XviD build 50 ~823 kbps avg, 0.15 bit/pixel
Аудио: Russian (48 kHz, MPEG Layer 3, 2 ch, ~128.00 kbps avg)

MediaInfo

Общее
Полное имя : F:Planeta.2011.P.avi
Формат : AVI
Формат/Информация : Audio Video Interleave
Размер файла : 745 Мбайт
Продолжительность : 1 ч. 48 м.
Общий поток : 959 Кбит/сек
Название фильма : Planeta.2011.P
Режиссёр : Modepido
Программа кодирования : VirtualDubMod 1.5.4.1 (build 2178/release)
Видео
Идентификатор : 0
Формат : MPEG-4 Visual
Профиль формата : Advanced Simple@L5
Параметр BVOP формата : 1
Параметр QPel формата : Нет
Параметр GMC формата : Без точки перехода
Параметр матрицы формата : Выборочная
Идентификатор кодека : XVID
Идентификатор кодека/Подсказка : XviD
Продолжительность : 1 ч. 48 м.
Битрейт : 823 Кбит/сек
Ширина : 608 пикс.
Высота : 368 пикс.
Соотношение сторон : 1,652
Частота кадров : 25,000 кадр/сек
Цветовое пространство : YUV
Подвыборка цветности : 4:2:0
Битовая глубина : 8 бит
Тип развёртки : Прогрессивная
Метод сжатия : С потерями
Бит/(Пиксели*Кадры) : 0.147
Размер потока : 640 Мбайт (86%)
Библиотека кодирования : XviD 1.2.1 (UTC 2008-12-04)
Аудио
Идентификатор : 1
Формат : MPEG Audio
Версия формата : Version 1
Профиль формата : Layer 3
Режим : Joint stereo
Расширение режима : MS Stereo
Идентификатор кодека : 55
Идентификатор кодека/Подсказка : MP3
Продолжительность : 1 ч. 48 м.
Вид битрейта : Постоянный
Битрейт : 128 Кбит/сек
Каналы : 2 канала
Частота : 48,0 КГц
Метод сжатия : С потерями
Размер потока : 99,4 Мбайт (13%)
Выравнивание : Соединение по промежуткам
Продолжительность промежутка : 80 мс. (2,00 видеокадра)
Время предзагрузки промежутка : 504 ms
Библиотека кодирования : LAME3.98r
Настройки программы : -m j -V 4 -q 2 -lowpass 17 -b 128

Скриншот c названием фильма

Скриншоты

[Цитировать]

Топик был перенесен из форума Новинки кинопроката в форум Триллер
Henkok



Показать сообщения:    

Текущее время: 24-Мар 04:16

Часовой пояс: UTC + 6


Вы не можете начинать темы
Вы не можете отвечать на сообщения
Вы не можете редактировать свои сообщения
Вы не можете удалять свои сообщения
Вы не можете голосовать в опросах
Вы не можете прикреплять файлы к сообщениям
Вы не можете скачивать файлы

!ВНИМАНИЕ!
Сайт не предоставляет электронные версии произведений, а занимается лишь коллекционированием и каталогизацией ссылок, присылаемых и публикуемых на форуме нашими читателями. Если вы являетесь правообладателем какого-либо представленного материала и не желаете, чтобы ссылка на него находилась в нашем каталоге, свяжитесь с нами, и мы незамедлительно удалим ее. Файлы для обмена на трекере предоставлены пользователями сайта, и администрация не несет ответственности за их содержание. Просьба не заливать файлы, защищенные авторскими правами, а также файлы нелегального содержания!