[ Сегодня идет свободное скачивание без начисления Download ]


Статистика раздачи
Нет
 
   
 
Top  
 
 
Вика Цыганова / Клубничка [Первые песни (Неизданные)]
Жанр: Шансон
Страна-производитель диска: Россия
Год издания диска: 1994
Издатель (лейбл): ЛАДЪ
Номер по каталогу: LDR-437010
Страна: Россия
Аудиокодек: FLAC (*.flac)
Тип рипа: image+.cue
Битрейт аудио: lossless
Продолжительность: 50:01
Источник (релизер): Диск из коллекции STOJAKa
Наличие сканов в содержимом раздачи: да (PNG)

Треклист

01. "Играй, тальяночка (Юрий Прялкин - Вадим Цыганов)"
02. "Беня Крик (Юрий Прялкин - Вадим Цыганов)"
03. "На Заречном кладбище (Юрий Прялкин - Вадим Цыганов)"
04. "Клубничка (Юрий Прялкин - Вадим Цыганов)"
05. "Тётя Роза (Юрий Прялкин - Вадим Цыганов)"
06. "Дед Егор (Юрий Прялкин - Вадим Цыганов)"
07. "Сонная, пьяная (Юрий Прялкин - Вадим Цыганов)"
08. "Всё не так (Юрий Прялкин - Вадим Цыганов)"
09. "Амур - Река (Юрий Прялкин - Вадим Цыганов)"
10. "Жабы (Юрий Прялкин - Вадим Цыганов)"
11. "Анапа (Юрий Прялкин - Вадим Цыганов)"
12. "Любовь - цыганка (Юрий Прялкин - Вадим Цыганов)"

Отчёт EAC об извлечении, выполненном 10. февраля 2012, 6:50

Exact Audio Copy V1.0 beta 2 from 29. April 2011
Отчёт EAC об извлечении, выполненном 10. февраля 2012, 6:50
Вика Цыганова / Клубничка . Первые песни [Неизданные]
Дисковод: Optiarc DVD RW AD-7190A Adapter: 0 ID: 0
Режим чтения : ДостоверностьИспользование точного потока : ДаОтключение кэша аудио : ДаИспользование указателей C2 : Нет
Коррекция смещения при чтении : 6Способность читать области Lead-in и Lead-out : НетЗаполнение пропущенных сэмплов тишиной : ДаУдаление блоков с тишиной в начале и конце : НетПри вычислениях CRC использовались нулевые сэмплы : ДаИнтерфейс : Встроенный Win32-интерфейс для Win NT/2000
Выходной формат : Внутренние WAV-операцииФормат сэмплов : 44.100 Гц; 16 бит; стерео
TOC извлечённого CD
Трек | Старт | Длительность | Начальный сектор | Конечный сектор --------------------------------------------------------------------- 1 | 0:00.00 | 4:42.73 | 0 | 21222 2 | 4:42.73 | 3:40.02 | 21223 | 37724 3 | 8:23.00 | 5:35.18 | 37725 | 62867 4 | 13:58.18 | 3:30.55 | 62868 | 78672 5 | 17:28.73 | 3:53.07 | 78673 | 96154 6 | 21:22.05 | 4:04.65 | 96155 | 114519 7 | 25:26.70 | 3:58.30 | 114520 | 132399 8 | 29:25.25 | 3:39.68 | 132400 | 148892 9 | 33:05.18 | 4:23.12 | 148893 | 168629 10 | 37:28.30 | 4:22.70 | 168630 | 188349 11 | 41:51.25 | 3:38.63 | 188350 | 204762 12 | 45:30.13 | 4:30.32 | 204763 | 225044
Характеристики диапазона извлечения и сообщения об ошибках
Выбранный диапазон
Имя файла J:\ШАНСОН\ЦЫГАНОВА ВИКА © [Дискография]\ЦЫГАНОВА ВИКА (с) 1994 [Первые песни (Неизданные)]\Вика Цыганова - Клубничка . Первые песни [Неизданные].wav
Пиковый уровень 100.0 % Скорость извлечения 3.9 X Качество диапазона 99.9 % CRC теста C50EC83B CRC копии C50EC83B Копирование... OK
Ошибок не произошло
AccurateRip: сводка
Трек 1 отсутствует в базе данныхТрек 2 отсутствует в базе данныхТрек 3 отсутствует в базе данныхТрек 4 отсутствует в базе данныхТрек 5 отсутствует в базе данныхТрек 6 отсутствует в базе данныхТрек 7 отсутствует в базе данныхТрек 8 отсутствует в базе данныхТрек 9 отсутствует в базе данныхТрек 10 отсутствует в базе данныхТрек 11 отсутствует в базе данныхТрек 12 отсутствует в базе данных
Ни одного трека нет в базе AccurateRip
Конец отчёта
==== Контрольная сумма отчёта 8FAB913A61084C6FF31FE7BD2DC643945476ED8C0CC8DB373FE6257B0BA1F21A ====

Содержание индексной карты (.CUE)

REM GENRE ChansonREM DATE 1994REM DISCID 9B0BB80CREM COMMENT "ExactAudioCopy v1.0b2"PERFORMER "Вика Цыганова"TITLE "Клубничка . Первые песни [Неизданные]"FILE "Вика Цыганова - Клубничка . Первые песни [Неизданные].flac" WAVE TRACK 01 AUDIO TITLE "Играй, тальяночка (Юрий Прялкин - Вадим Цыганов)" PERFORMER "Вика Цыганова" INDEX 01 00:00:00 TRACK 02 AUDIO TITLE "Беня Крик (Юрий Прялкин - Вадим Цыганов)" PERFORMER "Вика Цыганова" INDEX 00 04:42:65 INDEX 01 04:42:73 TRACK 03 AUDIO TITLE "На Заречном кладбище (Юрий Прялкин - Вадим Цыганов)" PERFORMER "Вика Цыганова" INDEX 00 08:22:70 INDEX 01 08:23:00 TRACK 04 AUDIO TITLE "Клубничка (Юрий Прялкин - Вадим Цыганов)" PERFORMER "Вика Цыганова" INDEX 00 13:58:15 INDEX 01 13:58:18 TRACK 05 AUDIO TITLE "Тётя Роза (Юрий Прялкин - Вадим Цыганов)" PERFORMER "Вика Цыганова" INDEX 00 17:28:68 INDEX 01 17:28:73 TRACK 06 AUDIO TITLE "Дед Егор (Юрий Прялкин - Вадим Цыганов)" PERFORMER "Вика Цыганова" INDEX 00 21:22:03 INDEX 01 21:22:05 TRACK 07 AUDIO TITLE "Сонная, пьяная (Юрий Прялкин - Вадим Цыганов)" PERFORMER "Вика Цыганова" INDEX 00 25:26:65 INDEX 01 25:26:70 TRACK 08 AUDIO TITLE "Всё не так (Юрий Прялкин - Вадим Цыганов)" PERFORMER "Вика Цыганова" INDEX 00 29:25:20 INDEX 01 29:25:25 TRACK 09 AUDIO TITLE "Амур - Река (Юрий Прялкин - Вадим Цыганов)" PERFORMER "Вика Цыганова" INDEX 00 33:05:13 INDEX 01 33:05:18 TRACK 10 AUDIO TITLE "Жабы (Юрий Прялкин - Вадим Цыганов)" PERFORMER "Вика Цыганова" INDEX 00 37:28:28 INDEX 01 37:28:30 TRACK 11 AUDIO TITLE "Анапа (Юрий Прялкин - Вадим Цыганов)" PERFORMER "Вика Цыганова" INDEX 00 41:51:20 INDEX 01 41:51:25 TRACK 12 AUDIO TITLE "Любовь - цыганка (Юрий Прялкин - Вадим Цыганов)" PERFORMER "Вика Цыганова" INDEX 00 45:30:10 INDEX 01 45:30:13

Лог проверки качества

AUDIOCHECKER v2.0 beta (build 457) - by Dester - opdester@freemail.hu~~~~~~~~~~~~~~~~~~~~~~~~~~~~~~~~~~-=== DO NOT EDIT THIS FILE! ===-
Path: ...\ЦЫГАНОВА ВИКА (с) 1994 [Первые песни (Неизданные)]
1 -=- Вика Цыганова - Клубничка . Первые песни [Неизданные].wav -=- CDDA (100%)
79609828

COVERS CD

[Цитировать]



Показать сообщения:    

Текущее время: 09-Дек 22:19

Часовой пояс: UTC + 3


Вы не можете начинать темы
Вы не можете отвечать на сообщения
Вы не можете редактировать свои сообщения
Вы не можете удалять свои сообщения
Вы не можете голосовать в опросах
Вы не можете прикреплять файлы к сообщениям
Вы не можете скачивать файлы

!ВНИМАНИЕ!
Сайт не предоставляет электронные версии произведений, а занимается лишь коллекционированием и каталогизацией ссылок, присылаемых и публикуемых на форуме нашими читателями. Если вы являетесь правообладателем какого-либо представленного материала и не желаете, чтобы ссылка на него находилась в нашем каталоге, свяжитесь с нами, и мы незамедлительно удалим ее. Файлы для обмена на трекере предоставлены пользователями сайта, и администрация не несет ответственности за их содержание. Просьба не заливать файлы, защищенные авторскими правами, а также файлы нелегального содержания!