[ Сегодня идет свободное скачивание без начисления Download ]


Статистика раздачи
Нет
 
   
 
Top  
 
 
-Эвакуация / Extraction (2013) WEB-DLRip- Год выпуска: 2013
Производство: США
Жанр: Боевик
Режиссер: Тони Гиглио
Актеры: Джон Фу, Фальк Хеншел, Винни Джонс, Джоэнн Келли, Шон Эстин, Дэнни Гловер, Адам Кроусделл, Бренден Р. Морган, Адам Чекман, Максимилиан Осински
Описание фильма:
Центральный персонаж фильма — американский солдат из секретного подразделения Black Ops, который оказывается единственным выжившим в неудачной миссии по спасению из тюремного заключения. Вынужденный собственными силами искать выход из строго охраняемой Чеченской тюрьмы, герой боевика должен придерживаться своей цели, ведь от него зависит спасение жизни тысяч людей…
Перевод: Одноголосый закадровый, любительский
Озвучка / Автор перевода: datynet

Дата мировой премьеры: 05.09.2013
Продолжительность: 01:46:04
Качество видео: WEB-DLRip
Видеокодек: Xvid
Битрейт видео: ~1595 kb/s
Размер кадра: 720x400
Аудиокодек: MP3 2.0
Битрейт аудио: 192 kb/s
Сэмпл: Скачать

Mediainfo

Общее
Полное имя : E:\Фильмы\Новые\Новая папка\Extraction_2013_WEBDLRip.avi
Формат : AVI
Формат/Информация : Audio Video Interleave
Размер файла : 1,33 Гбайт
Продолжительность : 1 ч. 46 м.
Общий поток : 1797 Кбит/сек
Библиотека кодирования : VirtualDub build 34753/release
Видео
Идентификатор : 0
Формат : MPEG-4 Visual
Профиль формата : Advanced [email protected]
Параметр BVOP формата : 2
Параметр QPel формата : Нет
Параметр GMC формата : Без точки перехода
Параметр матрицы формата : Default (H.263)
Режим смешивания : Сжатый битовый поток
Идентификатор кодека : XVID
Идентификатор кодека/Подсказка : XviD
Продолжительность : 1 ч. 46 м.
Битрейт : 1595 Кбит/сек
Ширина : 720 пикселей
Высота : 400 пикселей
Соотношение сторон : 16:9
Частота кадров : 23,976 кадра/сек
Цветовое пространство : YUV
Субдискретизация насыщенности : 4:2:0
Битовая глубина : 8 бит
Тип развёртки : Прогрессивная
Метод сжатия : С потерями
Бит/(Пиксели*Кадры) : 0.231
Размер потока : 1,18 Гбайт (89%)
Библиотека кодирования : XviD 1.2.1 (UTC 2008-12-04)
Аудио
Идентификатор : 1
Формат : MPEG Audio
Версия формата : Version 1
Профиль формата : Layer 3
Идентификатор кодека : 55
Идентификатор кодека/Подсказка : MP3
Продолжительность : 1 ч. 46 м.
Вид битрейта : Постоянный
Битрейт : 192 Кбит/сек
Каналы : 2 канала
Частота : 44,1 КГц
Метод сжатия : С потерями
Размер потока : 146 Мбайт (11%)
Выравнивание : Разделение по промежуткам
Продолжительность промежутка : 42 мс. (1,00 видеокадр)
Время предзагрузки промежутка : 500 мс.
Скриншоты:
Время раздачи: Пн-Пт с 18:00 до 22:00, Сб-Вс с 09:00 до 23:30

[Цитировать]



Показать сообщения:    

Текущее время: 04-Дек 17:22

Часовой пояс: UTC + 3


Вы не можете начинать темы
Вы не можете отвечать на сообщения
Вы не можете редактировать свои сообщения
Вы не можете удалять свои сообщения
Вы не можете голосовать в опросах
Вы не можете прикреплять файлы к сообщениям
Вы не можете скачивать файлы

!ВНИМАНИЕ!
Сайт не предоставляет электронные версии произведений, а занимается лишь коллекционированием и каталогизацией ссылок, присылаемых и публикуемых на форуме нашими читателями. Если вы являетесь правообладателем какого-либо представленного материала и не желаете, чтобы ссылка на него находилась в нашем каталоге, свяжитесь с нами, и мы незамедлительно удалим ее. Файлы для обмена на трекере предоставлены пользователями сайта, и администрация не несет ответственности за их содержание. Просьба не заливать файлы, защищенные авторскими правами, а также файлы нелегального содержания!