[ Сегодня идет свободное скачивание без начисления Download ]


Статистика раздачи
Нет
 
   
 
Top  
 
 
-Анатомия любви / Endless Love (2014) BDRemux
«Она никогда не будет прежней»
- Год выпуска: 2014
Производство: США / Bluegrass Films, Universal Pictures
Жанр: Драма, мелодрама
Описание фильма:
Он — далеко не ангел, высокий дерзкий парень, помешанный на тачках. Она — примерная ученица, белокурая красотка из богатой семьи. Их любовь под запретом, а потому вдвойне желанна. Страсть сжигает их дотла и бросает в бездну.
Режиссер: Шана Фест / Shana Feste
Продюсер: Памела Эбди, Стефани Сэвадж, Джош Шварц
Актеры: Алекс Петтифер, Габриэлла Уайлд, Брюс Гринвуд, Джоэли Ричардсон, Роберт Патрик, Риз Уэйкфилд, Дайо Окенайи, Эмма Ригби, Анна Энгер, Фаббианн Терез
Язык: Русский, английский
Перевод: Дублированный [iTunes]
Вид субтитров: Вшитые отключаемые
Язык субтитров: Английский (forced, full)

Дата мировой премьеры: 12 февраля 2014
Дата российской премьеры: 6 марта 2014, «UPI»
Дата выхода DVD релиза: 5 июня 2014, «Двадцатый Век Фокс СНГ»
Дата выхода Blu-Ray релиза: 5 июня 2014, «Двадцатый Век Фокс СНГ»
Рейтинг MPAA: PG-13
Возраст: 12+
Продолжительность: 01:44:38
Качество видео: BDRemux
Видео: MPEG4_AVC/H.264, 1920x1080, ~32832 kbps, 0.648 bit/pixel, 23.976 fps
Аудио 1: AC3 5.1, 384 kbps, 48 kHz, 16-bit [Русский - дублированный]
Аудио 2: DTS-HD MA 5.1, 3660 kbps, 48 kHz, 24-bit [Английский - оригинал]
Аудио 3: AC3 2.0, 192 kbps, 48 kHz, 16-bit [Английский - Descriptive]

Отчёт MediaInfo

Полное имя : D:\Анатомия.любви-Endless.Love.(2014).BDRemux.[1080p].mkv
Формат : Matroska
Версия формата : Version 2
Размер файла : 26,7 Гбайт
Продолжительность : 1 ч. 44 м.
Режим общего битрейта : Переменный
Общий поток : 36,5 Мбит/сек
Название фильма : Endless Love (2014) /
Дата кодирования : UTC 2014-05-22 03:03:31
Программа кодирования : mkvmerge v5.7.0 ('The Whirlwind') built on Aug 7 2012 14:11:40
Библиотека кодирования : libebml v1.2.3 + libmatroska v1.3.0
Attachment : Yes
Видео
Идентификатор : 1
Формат : AVC
Формат/Информация : Advanced Video Codec
Профиль формата : High@L4.1
Параметр CABAC формата : Да
Параметр ReFrames формата : 4 кадра
Параметр GOP формата : M=3, N=12
Идентификатор кодека : V_MPEG4/ISO/AVC
Продолжительность : 1 ч. 44 м.
Вид битрейта : Переменный
Битрейт : 32,2 Мбит/сек
Максимальный битрейт : 38,0 Мбит/сек
Ширина : 1920 пикселей
Высота : 1080 пикселей
Соотношение сторон : 16:9
Режим частоты кадров : Постоянный
Частота кадров : 23,976 кадра/сек
Цветовое пространство : YUV
Субдискретизация насыщенности : 4:2:0
Битовая глубина : 8 бит
Тип развёртки : Прогрессивная
Бит/(Пиксели*Кадры) : 0.648
Размер потока : 23,5 Гбайт (88%)
Заголовок : Анатомия.любви-Endless.Love.(2014).BDRemux.[1080p]
Язык : English
Default : Да
Forced : Нет
Аудио #1
Идентификатор : 2
Формат : AC-3
Формат/Информация : Audio Coding 3
Расширение режима : CM (complete main)
Параметр Endianness формата : Big
Идентификатор кодека : A_AC3
Продолжительность : 1 ч. 44 м.
Вид битрейта : Постоянный
Битрейт : 384 Кбит/сек
Каналы : 6 каналов
Расположение каналов : Front: L C R, Side: L R, LFE
Частота : 48,0 КГц
Битовая глубина : 16 бит
Метод сжатия : С потерями
Размер потока : 287 Мбайт (1%)
Заголовок : AC3 5.1 / 384 kbps / Dub
Язык : Russian
Default : Да
Forced : Нет
Аудио #2
Идентификатор : 3
Формат : DTS
Формат/Информация : Digital Theater Systems
Профиль формата : MA / Core
Идентификатор кодека : A_DTS
Продолжительность : 1 ч. 44 м.
Вид битрейта : Переменный
Битрейт : 2965 Кбит/сек / 1510 Кбит/сек
Каналы : 6 каналов
Расположение каналов : Front: L C R, Side: L R, LFE
Частота : 48,0 КГц
Битовая глубина : 24 бит
Метод сжатия : Без потерь / Lossy
Заголовок : DTS-HD MA 5.1 / 3660 kbps / Original
Язык : English
Default : Нет
Forced : Нет
Аудио #3
Идентификатор : 4
Формат : AC-3
Формат/Информация : Audio Coding 3
Профиль формата : Dolby Digital
Расширение режима : CM (complete main)
Параметр Endianness формата : Big
Идентификатор кодека : A_AC3
Продолжительность : 1 ч. 44 м.
Вид битрейта : Постоянный
Битрейт : 192 Кбит/сек
Каналы : 2 канала
Расположение каналов : Front: L R
Частота : 48,0 КГц
Битовая глубина : 16 бит
Метод сжатия : С потерями
Размер потока : 144 Мбайт (1%)
Заголовок : AC3 2.0 / 192 kbps / Descriptive
Язык : English
Default : Нет
Forced : Нет
Текст #1
Идентификатор : 5
Формат : UTF-8
Идентификатор кодека : S_TEXT/UTF8
Идентификатор кодека/Информация : UTF-8 Plain Text
Заголовок : Full
Язык : English
Default : Нет
Forced : Нет
Текст #2
Идентификатор : 6
Формат : UTF-8
Идентификатор кодека : S_TEXT/UTF8
Идентификатор кодека/Информация : UTF-8 Plain Text
Заголовок : SDH
Язык : English
Default : Нет
Forced : Нет
Меню
00:00:00.000 : en:Chapter 1
00:05:46.220 : en:Chapter 2
00:11:45.162 : en:Chapter 3
00:15:51.533 : en:Chapter 4
00:19:43.724 : en:Chapter 5
00:25:26.816 : en:Chapter 6
00:29:42.989 : en:Chapter 7
00:35:30.670 : en:Chapter 8
00:39:56.644 : en:Chapter 9
00:45:14.211 : en:Chapter 10
00:49:02.022 : en:Chapter 11
00:54:55.917 : en:Chapter 12
00:59:51.588 : en:Chapter 13
01:04:43.212 : en:Chapter 14
01:10:01.947 : en:Chapter 15
01:16:55.986 : en:Chapter 16
01:23:17.033 : en:Chapter 17
01:29:33.993 : en:Chapter 18
01:35:54.081 : en:Chapter 19
01:39:26.752 : en:Chapter 20
Скриншоты:

Время раздачи: 24/7 (до 10 скачавших)

[Цитировать]



Показать сообщения:    

Текущее время: 11-Дек 11:05

Часовой пояс: UTC + 3


Вы не можете начинать темы
Вы не можете отвечать на сообщения
Вы не можете редактировать свои сообщения
Вы не можете удалять свои сообщения
Вы не можете голосовать в опросах
Вы не можете прикреплять файлы к сообщениям
Вы не можете скачивать файлы

!ВНИМАНИЕ!
Сайт не предоставляет электронные версии произведений, а занимается лишь коллекционированием и каталогизацией ссылок, присылаемых и публикуемых на форуме нашими читателями. Если вы являетесь правообладателем какого-либо представленного материала и не желаете, чтобы ссылка на него находилась в нашем каталоге, свяжитесь с нами, и мы незамедлительно удалим ее. Файлы для обмена на трекере предоставлены пользователями сайта, и администрация не несет ответственности за их содержание. Просьба не заливать файлы, защищенные авторскими правами, а также файлы нелегального содержания!