[ Сегодня идет свободное скачивание без начисления Download ]


Статистика раздачи
Нет
 
   
 
Top  
 
 
ППС 2 (Патрульно-постовая служба 2) Производитель : Россия, ООО "Триикс Медиа" по заказу ОАО "Телекомпания НТВ"
Жанр: Детектив, боевик, криминал
Год выпуска: 2014
Продолжительность: 50 мин.
Cубтитры: нет
Режиссер: Виктор Татарский, Андрей Иванов
В ролях: Борис Галкин, Андрей Кузнецов, Александр Мосолов, Роман Агеев, Александр Большаков, Полина Воробьёва, Игорь Вуколов, Ольга Калмыкова, Валерий Кухарешин, Валерий Ошомков, Екатерина Решетникова, Геннадий Свирь, Павел Харизанов, Антон Чернов, Степан Бекетов, Александр Глебов, Вадим Романов, Роман Павлушев, Игорь Головин, Эрик Кения, Марианна Коробейникова, Зоя Буряк, Александр Ронис, Арина Лыкова, Михаил Володин, Данила Калабин, Олег Алмазов, Сергей Малюгов, Дмитрий Поддубный, Александр Петров, Тимофей Будкевич, Борис Драгилев, Алексей Одинг, Денис Кириллов, Игорь Лепихин, Герасим Архипов
Описание: Экипаж Лукина, Сергеева и Дуброва, так же, как и в первом сезоне, работает «в поле» — в городе, где ежедневно происходят правонарушения разной степени опасности. Полицейские сталкиваются с бытовыми драками, убийствами, семейными разборками, с наркоманами и наркодилерами, квартирными ворами-домушниками, угонщиками машин, уличными хулиганами, пьяными, бомжами — в общем всем тем, что называется «изнанкой большого города». В коллективе появляется новое лицо — Константин Шансов — опер, работающий в отделе вместе со Слоновым и Мурашовым. Помимо мелких хулиганов и районных наркоторговцев у героев появляется серьёзный противник в лице бизнесмена Ильина, человека с криминальным прошлым.
Качество: SATRip
Формат: AVI
Видео кодек: XviD
Аудио кодек: AC3
Видео: 720x400 (1.80:1), 25 fps, XviD build 50 ~1548 kbps avg, 0.22 bit/pixel
Аудио: 48 kHz, AC3 Dolby Digital, 2/0 (L,R) ch, ~192.00 kbps avg
MI
General
Complete name : Z:\раздачи\PPS-2.2014.SATRip.RG.Russkie.serialy.&.Files-x\PPS-2.01.seriya.2014.SATRip.RG.Russkie.serialy.&.Files-x.avi
Format : AVI
Format/Info : Audio Video Interleave
File size : 550 MiB
Duration : 43mn 19s
Overall bit rate : 1 775 Kbps
Writing application : VirtualDubMod 1.5.10.3 | www.virtualdub-fr.org || (build 2550/release)
Writing library : VirtualDubMod build 2550/release
Video
ID : 0
Format : MPEG-4 Visual
Format profile : Advanced Simple@L5
Format settings, BVOP : 1
Format settings, QPel : No
Format settings, GMC : No warppoints
Format settings, Matrix : Default (H.263)
Codec ID : XVID
Codec ID/Hint : XviD
Duration : 43mn 19s
Bit rate : 1 573 Kbps
Width : 720 pixels
Height : 400 pixels
Display aspect ratio : 16:9
Frame rate : 25.000 fps
Color space : YUV
Chroma subsampling : 4:2:0
Bit depth : 8 bits
Scan type : Progressive
Compression mode : Lossy
Bits/(Pixel*Frame) : 0.219
Stream size : 487 MiB (89%)
Writing library : XviD 1.2.1 (UTC 2008-12-04)
Audio
ID : 1
Format : AC-3
Format/Info : Audio Coding 3
Mode extension : CM (complete main)
Format settings, Endianness : Big
Codec ID : 2000
Duration : 43mn 18s
Bit rate mode : Constant
Bit rate : 192 Kbps
Channel(s) : 2 channels
Channel positions : Front: L R
Sampling rate : 48.0 KHz
Bit depth : 16 bits
Compression mode : Lossy
Stream size : 59.5 MiB (11%)
Alignment : Split accross interleaves
Interleave, duration : 40 ms (1.00 video frame)
Interleave, preload duration : 500 ms
Внимание! Раздача ведётся путём добавления новых серий!
Внимание! Раздача ведётся путём добавления новых серий
Внимание! Раздача ведётся путём добавления новых серий; при каждом добавлении создётся новый торрент.
Чтобы начать докачку новой серии, пользователям необходимо сделать следующее:
1) остановить скачивание
2) удалить старый торрент у себя из клиента (старые серии удалять не надо)
3) скачать новый торрент и запустить его у себя в клиенте вместо старого, при этом указать клиенту путь в старую папку куда и должно происходить скачивание новых серий.
Ваш клиент при этом должен произвести хеширование (проверку) старой папки (если не производит сам - помогите ему сделать это), и будет докачивать только те серии которых у вас ещё нет. Старые серии при этом не удаляются, а продолжают раздаваться!
Eсли вы уже удалили старые серии, то предотвратить повторную закачку старых серий можно, отжав галочку в соответствовавших местах при запуске нового торрента.
Скриншоты

[Цитировать]



Показать сообщения:    

Текущее время: 11-Дек 03:22

Часовой пояс: UTC + 3


Вы не можете начинать темы
Вы не можете отвечать на сообщения
Вы не можете редактировать свои сообщения
Вы не можете удалять свои сообщения
Вы не можете голосовать в опросах
Вы не можете прикреплять файлы к сообщениям
Вы не можете скачивать файлы

!ВНИМАНИЕ!
Сайт не предоставляет электронные версии произведений, а занимается лишь коллекционированием и каталогизацией ссылок, присылаемых и публикуемых на форуме нашими читателями. Если вы являетесь правообладателем какого-либо представленного материала и не желаете, чтобы ссылка на него находилась в нашем каталоге, свяжитесь с нами, и мы незамедлительно удалим ее. Файлы для обмена на трекере предоставлены пользователями сайта, и администрация не несет ответственности за их содержание. Просьба не заливать файлы, защищенные авторскими правами, а также файлы нелегального содержания!