[ Сегодня идет свободное скачивание без начисления Download ]


Статистика раздачи
Нет
 
   
 
Top  
 
 
Королева игры / Queen of the Game, Rus
Год выпуска: 2014
Производство: «Дуэт» по идее SBS (Queen of the Game)
Жанр: мелодрама
Продолжительность: ~ 00:52:00
Субтитры: Нет
Режиссёр: Роман Ярославцев, Константин Таран
В ролях: Янина Соколовская, Михаил Полосухин, Надежда Бахтина, Вахтанг Беридзе, Мила Август, Алексей Кондрахов, Анна Данькова, Александр Кузнецов, Лилия Кондрова, Александр Дзюба, Лариса Баранова (II), Павел Григорьев, Игорь Карташёв, Алексей Лонгин, Полина Одинцова, Трофим Пихтулов
Описание: Ровно двадцать лет назад отец Анны, будучи еще начинающим бизнесменом, путем махинаций отнял гостиницу у отца Сергея и лишил его бизнеса, состояния и смысла жизни. Сергей, семи лет от роду, совершенно случайно стал свидетелем этого унижения и все последующие годы он лелеял только одну мечту - отомстить. Сергей хочет нанести отцу Анны смертельный удар, понимая, что сможет это сделать только через его любимую, единственную дочь. Но не все так просто. Влюбив Анну в себя, Сергей сам влюбляется в нее, и теперь перед ним стоит нелегкий выбор - идти до конца в своих намерениях отомстить или выбрать любовь Анны и отступить.
-
Доп. информация: Реклама отсутствует!-Сэмпл: https://cloud.mail.ru/public/9f785d5f7f70/%D0%9A%D0...Rip.by.simka.avi
Качество: SATRip
Формат: AVI
Видео кодек: XviD
Аудио кодек: MP3
Видео: 720x400, 25 fps, XviD, ~1440 kbps, 0.211 bit/pixel
Аудио: 48 kHz, MPEG Layer 3, 2 ch, 192 kbps

MI

Общее
Полное имя : Y:\Сериалы 2014\Королева игры (2014)\Королева игры.(01.seriya).2014.XviD.SATRip.by.simka.avi
Формат : AVI
Формат/Информация : Audio Video Interleave
Размер файла : 608 Мбайт
Продолжительность : 51 м.
Общий поток : 1646 Кбит/сек
Программа кодирования : VirtualDubModRus 1.5.10.2 (build 2542/release)
Библиотека кодирования : VirtualDubMod build 2542/release
Видео
Идентификатор : 0
Формат : MPEG-4 Visual
Профиль формата : Advanced Simple@L5
Параметр BVOP формата : 1
Параметр QPel формата : Нет
Параметр GMC формата : Без точки перехода
Параметр матрицы формата : Default (MPEG)
Идентификатор кодека : XVID
Идентификатор кодека/Подсказка : XviD
Продолжительность : 51 м.
Битрейт : 1444 Кбит/сек
Ширина : 720 пикселей
Высота : 400 пикселей
Соотношение сторон : 16:9
Частота кадров : 25,000 кадров/сек
Цветовое пространство : YUV
Субдискретизация насыщенности : 4:2:0
Битовая глубина : 8 бит
Тип развёртки : Прогрессивная
Метод сжатия : С потерями
Бит/(Пиксели*Кадры) : 0.201
Размер потока : 534 Мбайт (88%)
Библиотека кодирования : XviD 1.2.1 (UTC 2008-12-04)
Аудио
Идентификатор : 1
Формат : MPEG Audio
Версия формата : Version 1
Профиль формата : Layer 3
Режим : Joint stereo
Расширение режима : MS Stereo
Идентификатор кодека : 55
Идентификатор кодека/Подсказка : MP3
Продолжительность : 51 м.
Вид битрейта : Постоянный
Битрейт : 192 Кбит/сек
Каналы : 2 канала
Частота : 48,0 КГц
Метод сжатия : С потерями
Размер потока : 71,0 Мбайт (12%)
Выравнивание : Соединение по промежуткам
Продолжительность промежутка : 40 мс. (1,00 видеокадр)
Время предзагрузки промежутка : 504 мс.
Библиотека кодирования : LAME3.99r
Настройки программы : -m j -V 4 -q 2 -lowpass 18.6 -b 192

Скриншоты

-------------
Внимание! Раздача ведётся путём добавления новых выпусков
При каждом добавлении создаётся новый торрент. Чтобы начать докачку нового выпуска, пользователям необходимо сделать следующее:
? остановить скачивание;
? удалить старый торрент у себя из клиента (старые выпуски удалять не надо);
? скачать новый торрент и запустить его у себя в клиенте вместо старого, при этом указать клиенту путь в старую папку куда и должно происходить скачивание новых выпусков;
? ваш клиент при запуске должен произвести хеширование (проверку) старой папки (если не производит сам - помогите ему сделать это), и будет докачивать только те выпуски, которых у вас ещё нет. Старые выпуски при этом не удаляются, а продолжают раздаваться!, Конец фильма!, Продолжения в понедельник если не доберется ПО
? Eсли вы уже удалили старые выпуски, то предотвратить повторную закачку старых выпусков можно, отжав галочку в соответсвующих местах при запуске нового торрента.
Добавлена 6-я серия, Продолжения в понедельник!

[Цитировать]



Показать сообщения:    

Текущее время: 02-Дек 22:54

Часовой пояс: UTC + 3


Вы не можете начинать темы
Вы не можете отвечать на сообщения
Вы не можете редактировать свои сообщения
Вы не можете удалять свои сообщения
Вы не можете голосовать в опросах
Вы не можете прикреплять файлы к сообщениям
Вы не можете скачивать файлы

!ВНИМАНИЕ!
Сайт не предоставляет электронные версии произведений, а занимается лишь коллекционированием и каталогизацией ссылок, присылаемых и публикуемых на форуме нашими читателями. Если вы являетесь правообладателем какого-либо представленного материала и не желаете, чтобы ссылка на него находилась в нашем каталоге, свяжитесь с нами, и мы незамедлительно удалим ее. Файлы для обмена на трекере предоставлены пользователями сайта, и администрация не несет ответственности за их содержание. Просьба не заливать файлы, защищенные авторскими правами, а также файлы нелегального содержания!