[ Сегодня идет свободное скачивание без начисления Download ]


Статистика раздачи
Нет
 
   
 
Top  
 
 
Бесы
Год выпуска: 2006
Производство: Телефильм
Жанр: драма, экранизация.
Продолжительность: 312 минут
Субтитры: нет
Режиссёр: Валерий Ахадов, Геннадий Карюк, Феликс Шультесс.
В ролях: Юрий Колокольников, Владимир Вдовиченков, Ирина Купченко, Леонид Мозговой, Евгений Стычкин, Инга Оболдина-Стрелкова, Алексей Гришин, Игорь Гордин, Игорь Яцко, Анатолий Горячев, Глеб Подгородинский, Алёна Ивченко, Владимир Капустин, Антон Шурцов, Наталья Рогожкина, Виталий Хаев, Глафира Тарханова, Екатерина Вилкова, Даша Давыдова, Александр Арсентьев, Алексей Фаддеев, Андрей Межулис, Маргарита Шубина, Леонид Тимцуник, Юрий Павлов, Софья Горшкова, Владимир Малков, Петр Складчиков, Любовь Руденко, Павел Трубинер, Александра Стрельцина, Феликс Шультесс.
Описание: Казалось бы, и аристократы, и дворяне, и деньги и поместье, а все равно - и на мелкие подлости вполне способны, и бунт поднять хотят, и на убийство друг друга подстрекают, и убивают, и девочек насилуют...
Гадость человеческая предстает во всей красе, во многих ярких ее проявлениях, причем максимально точно. Конечно, роман не только о мерзости. И о русском бунте, и об интеллигенции русской бестолковой... и о любви, предательстве... О многом.
Читать не перечитать.
Этот фильм, словно книга, бережный к классику и современный.
Все раздачи сериала
Сэмпл: скачать
Качество: DVD9
Формат: DVD-Video
Видео кодек: MPEG2
Аудио кодек: AC3
Видео: PAL 4:3 (704x576) VBR ~ 6828.16 kbps avg
Аудио: AC3, 3/2 (L,C,R,SL,SR)+LFE ch, 448 kbps, Delay 0 mSec
Аудио: AC3, 2/0 (L,R) ch, 256 kbps, Delay 0 mSec
Спасибо всем, кто остаётся на раздаче !
MediaInfo
Общее
Полное имя : C:\Бесы (2 DVD)\Диск 1\VTS_03_1.VOB
Формат : MPEG-PS
Размер файла : 1024 Мбайт
Продолжительность : 20 м.
Режим общего битрейта : Переменный
Общий поток : 6820 Кбит/сек
Видео
Идентификатор : 224 (0xE0)
Формат : MPEG Video
Версия формата : Version 2
Профиль формата : Main@Main
Параметр BVOP формата : Да
Параметр матрицы формата : Выборочная
Продолжительность : 20 м.
Вид битрейта : Переменный
Битрейт : 5980 Кбит/сек
Максимальный битрейт : 8000 Кбит/сек
Ширина : 704 пикселей
Высота : 576 пикселей
Соотношение сторон : 4:3
Частота кадров : 25,000 кадров/сек
Стандарт вещания : PAL
Цветовое пространство : YUV
Субдискретизация насыщенности : 4:2:0
Битовая глубина : 8 бит
Тип развёртки : Чересстрочная
Порядок развёртки : Верхнее поле первое
Метод сжатия : С потерями
Бит/(Пиксели*Кадры) : 0.577
Размер потока : 898 Мбайт (88%)
Аудио #1
Идентификатор : 189 (0xBD)-128 (0x80)
Формат : AC-3
Формат/Информация : Audio Coding 3
Расширение режима : CM (complete main)
Режим смешивания : DVD-Video
Продолжительность : 20 м.
Вид битрейта : Постоянный
Битрейт : 448 Кбит/сек
Каналы : 6 каналов
Расположение каналов : Front: L C R, Side: L R, LFE
Частота : 48,0 КГц
Битовая глубина : 16 бит
Метод сжатия : С потерями
Размер потока : 67,2 Мбайт (7%)
Аудио #2
Идентификатор : 189 (0xBD)-129 (0x81)
Формат : AC-3
Формат/Информация : Audio Coding 3
Расширение режима : CM (complete main)
Режим смешивания : DVD-Video
Продолжительность : 20 м.
Вид битрейта : Постоянный
Битрейт : 256 Кбит/сек
Каналы : 2 канала
Расположение каналов : Front: L R
Частота : 48,0 КГц
Битовая глубина : 16 бит
Метод сжатия : С потерями
Размер потока : 38,4 Мбайт (4%)
DVDInfo
Title: Диск 1
Size: 7.70 Gb ( 8 072 638,00 KBytes ) - DVD-9
Enabled regions: 1, 2, 3, 4, 5, 6
VTS_01 :
Play Length: 00:00:05
Video: PAL 4:3 (704x576) VBR
VTS_02 :
Play Length: 00:00:05
Video: PAL 4:3 (704x576) VBR
Audio:
Not specified (Dolby AC3, 2 ch)
VTS_03 :
Play Length: 00:53:47
Video: PAL 4:3 (704x576) VBR
Audio:
Russian (Dolby AC3, 6 ch)
Russian (Dolby AC3, 2 ch)
VTS_04 :
Play Length: 00:51:00
Video: PAL 4:3 (704x576) VBR
Audio:
Russian (Dolby AC3, 6 ch)
Russian (Dolby AC3, 2 ch)
VTS_05 :
Play Length: 00:53:50
Video: PAL 4:3 (704x576) VBR
Audio:
Russian (Dolby AC3, 6 ch)
Russian (Dolby AC3, 2 ch)
* Menus Information *
VIDEO_TS Menu
Video:
PAL 4:3 (704x576) VBR
English Language Unit :
Title Menu
VTS_01 Menu
Video:
PAL 4:3 (704x576) VBR
Audio:
Not specified (Dolby AC3, 2 ch)
English Language Unit :
Root Menu
VTS_02 Menu
Video:
PAL 4:3 (704x576) VBR
English Language Unit :
Root Menu
VTS_03 Menu
Video:
PAL 4:3 (704x576) VBR
English Language Unit :
Root Menu
Chapter (PTT) Menu
VTS_04 Menu
Video:
PAL 4:3 (704x576) VBR
English Language Unit :
Root Menu
Chapter (PTT) Menu
VTS_05 Menu
Video:
PAL 4:3 (704x576) VBR
English Language Unit :
Root Menu
Chapter (PTT) Menu
Title: Диск 2
Size: 7.38 Gb ( 7 734 782,00 KBytes ) - DVD-9
Enabled regions: 1, 2, 3, 4, 5, 6
VTS_01 :
Play Length: 00:00:05
Video: PAL 4:3 (704x576) VBR
VTS_02 :
Play Length: 00:00:05
Video: PAL 4:3 (704x576) VBR
Audio:
Not specified (Dolby AC3, 2 ch)
VTS_03 :
Play Length: 00:51:00
Video: PAL 4:3 (704x576) VBR
Audio:
Russian (Dolby AC3, 6 ch)
Russian (Dolby AC3, 2 ch)
VTS_04 :
Play Length: 00:50:10
Video: PAL 4:3 (704x576) VBR
Audio:
Russian (Dolby AC3, 6 ch)
Russian (Dolby AC3, 2 ch)
VTS_05 :
Play Length: 00:50:41
Video: PAL 4:3 (704x576) VBR
Audio:
Russian (Dolby AC3, 6 ch)
Russian (Dolby AC3, 2 ch)
* Menus Information *
VIDEO_TS Menu
Video:
PAL 4:3 (704x576) VBR
English Language Unit :
Title Menu
VTS_01 Menu
Video:
PAL 4:3 (704x576) VBR
Audio:
Not specified (Dolby AC3, 2 ch)
English Language Unit :
Root Menu
VTS_02 Menu
Video:
PAL 4:3 (704x576) VBR
English Language Unit :
Root Menu
VTS_03 Menu
Video:
PAL 4:3 (704x576) VBR
English Language Unit :
Root Menu
Chapter (PTT) Menu
VTS_04 Menu
Video:
PAL 4:3 (704x576) VBR
English Language Unit :
Root Menu
Chapter (PTT) Menu
VTS_05 Menu
Video:
PAL 4:3 (704x576) VBR
English Language Unit :
Root Menu
Chapter (PTT) Menu
Скриншоты

[Цитировать]



Показать сообщения:    

Текущее время: 09-Дек 06:54

Часовой пояс: UTC + 3


Вы не можете начинать темы
Вы не можете отвечать на сообщения
Вы не можете редактировать свои сообщения
Вы не можете удалять свои сообщения
Вы не можете голосовать в опросах
Вы не можете прикреплять файлы к сообщениям
Вы не можете скачивать файлы

!ВНИМАНИЕ!
Сайт не предоставляет электронные версии произведений, а занимается лишь коллекционированием и каталогизацией ссылок, присылаемых и публикуемых на форуме нашими читателями. Если вы являетесь правообладателем какого-либо представленного материала и не желаете, чтобы ссылка на него находилась в нашем каталоге, свяжитесь с нами, и мы незамедлительно удалим ее. Файлы для обмена на трекере предоставлены пользователями сайта, и администрация не несет ответственности за их содержание. Просьба не заливать файлы, защищенные авторскими правами, а также файлы нелегального содержания!