[ Сегодня идет свободное скачивание без начисления Download ]


Статистика раздачи
Нет
 
   
 
Top  
 
 
Переводчик
Год выпуска: 2014
Производство: Россия / Марс Медиа
Жанр: Военный фильм, драма
Продолжительность: ~00:45:00
Субтитры: нет
Режиссёр: Андрей Прошкин
В ролях: Виталий Хаев, Йоахим Пауль Ассбeк, Лариса Малеванная, Карина Андоленко, Ханс-Георг Блюмрайтер, Петар Зекавица, Анна Уколова, Борис Каморзин, Ольга Лапшина, Михаил Горбатов, Карен Джангиров, Камиль Тукаев, Дмитрий Моршаков, Ирина Долганова, Борис Недбайлов
Описание: Описание: Эта история о том, как обыкновенный негероический человек, становится героем. Преподаватель химии Андрей Петрович Стариков — по прозвищу «Чарли Чаплин» — живет с женой и матерью в старом доме-колодце, в котором, как в ковчеге, собрался пестрый интернационал: украинцы, русские, евреи, татары и армяне. Но приход немцев резко меняет их жизнь. Чтобы спасти своих близких, Чарли вынужден служить переводчиком в фашистском штабе.
Доп. информация: В основу сценария четырехсерийной военной драмы "Переводчик" был положен сюжет французского фильма 1975 года "Старое ружье" («Le vieux fusil») с Филиппом Нуаре (Philippe Noiret) и Роми Шнайдер (Romy Schneider) в главных ролях. Сценаристом российской картины стал Игорь Порублев, самой известной работой которого является сериал "Бригада".
Качество: HDTVRip 720p
Формат: MKV
Видео кодек: H.264
Аудио кодек: AC-3
Видео: MPEG4 Video (H264) 1280x720, ~ 5187 kbps, 25.00fps 0.225 bit/pixel
Аудио: AC-3, 2 канала, 48,0 КГц, ~192 kbps
Сторонней рекламы нет!
MediaInfo
ОбщееУникальный идентификатор : 252410581623803557407340234578717785395 (0xBDE4827E838BD1448E5B88B051E33D33)Полное имя : F:\Переводчик (Чарли) HDTVRip 720p\Переводчик (Чарли) 01_серия_HDTVRip_720p.mkvФормат : MatroskaРазмер файла : 1,85 ГбайтПродолжительность : 49 м.Общий поток : 5381 Кбит/секДата кодирования : UTC 2014-05-05 19:12:02Программа кодирования : mkvmerge v6.1.0 ('Old Devil') built on Mar 4 2013 09:10:42Библиотека кодирования : libebml v1.3.0 + libmatroska v1.4.0
ВидеоИдентификатор : 1Формат : AVCФормат/Информация : Advanced Video CodecПрофиль формата : [email protected] CABAC формата : ДаПараметр ReFrames формата : 8 кадровИдентификатор кодека : V_MPEG4/ISO/AVCПродолжительность : 49 м.Битрейт : 5187 Кбит/секШирина : 1280 пикс.Высота : 720 пикс.Соотношение сторон : 16:9Частота кадров : 25,000 кадр/секЦветовое пространство : YUVПодвыборка цветности : 4:2:0Битовая глубина : 8 битТип развёртки : ПрогрессивнаяБит/(Пиксели*Кадры) : 0.225Размер потока : 1,74 Гбайт (94%)Библиотека кодирования : x264 core 130 r2273 b3065e6Настройки программы : cabac=1 / ref=8 / deblock=1:-3:-3 / analyse=0x3:0x133 / me=umh / subme=11 / psy=1 / psy_rd=1.00:0.20 / mixed_ref=1 / me_range=32 / chroma_me=1 / trellis=2 / 8x8dct=1 / cqm=0 / deadzone=21,11 / fast_pskip=0 / chroma_qp_offset=-3 / threads=12 / lookahead_threads=2 / sliced_threads=0 / nr=0 / decimate=0 / interlaced=0 / bluray_compat=0 / constrained_intra=0 / bframes=8 / b_pyramid=2 / b_adapt=2 / b_bias=0 / direct=3 / weightb=1 / open_gop=0 / weightp=2 / keyint=250 / keyint_min=25 / scenecut=40 / intra_refresh=0 / rc=2pass / mbtree=0 / bitrate=5187 / ratetol=1.0 / qcomp=0.60 / qpmin=0 / qpmax=69 / qpstep=4 / cplxblur=20.0 / qblur=0.5 / ip_ratio=1.40 / pb_ratio=1.30 / aq=1:1.00
АудиоИдентификатор : 2Формат : AC-3Формат/Информация : Audio Coding 3Расширение режима : CM (complete main)Идентификатор кодека : A_AC3Продолжительность : 49 м.Вид битрейта : ПостоянныйБитрейт : 192 Кбит/секКаналы : 2 каналаРасположение каналов : Front: L RЧастота : 48,0 КГцБитовая глубина : 16 битМетод сжатия : С потерямиРазмер потока : 67,5 Мбайт (4%)
Раздача группы:
Отдельное спасибо nikolspup за предоставление материала.
Внимание ! Раздача ведётся путём добавления новых серий
Внимание! Раздача ведётся путём добавления новых серий; при каждом добавлении создётся новый торрент. Чтобы начать докачку новой серии, пользователям необходимо сделать следующее:
(1) остановить скачивание,
(2) удалить старый торрент у себя из клиента (старые серии удалять не надо),
(3) скачать новый торрент и запустить его у себя в клиенте вместо старого, при этом указать клиенту путь в старую папку куда и должно происходить скачивание новых серий.
Ваш клиент при этом должен произвести хеширование (проверку) старой папки (если не производит сам - помогите ему сделать это), и будет докачивать только те серии которых у вас ещё нет. Старые серии при этом не удаляются, а продолжают раздаваться!
Eсли вы уже удалили старые серии, то предотвратить повторную закачку старых серий можно, отжав галочку в соответсвующих местах при запуске нового торрента. По возможности, желательно не удалять старые серии как можно дольше чтобы релизёр не столько продолжал раздавать старые серии, а смог сконцентрироваться на новых.
ВНИМАНИЕ! ТОРРЕНТ ПЕРЕЗАЛИТ! ДОБАВЛЕНА 4-ая СЕРИЯ!Скриншоты

[Цитировать]



Показать сообщения:    

Текущее время: 05-Дек 15:38

Часовой пояс: UTC + 3


Вы не можете начинать темы
Вы не можете отвечать на сообщения
Вы не можете редактировать свои сообщения
Вы не можете удалять свои сообщения
Вы не можете голосовать в опросах
Вы не можете прикреплять файлы к сообщениям
Вы не можете скачивать файлы

!ВНИМАНИЕ!
Сайт не предоставляет электронные версии произведений, а занимается лишь коллекционированием и каталогизацией ссылок, присылаемых и публикуемых на форуме нашими читателями. Если вы являетесь правообладателем какого-либо представленного материала и не желаете, чтобы ссылка на него находилась в нашем каталоге, свяжитесь с нами, и мы незамедлительно удалим ее. Файлы для обмена на трекере предоставлены пользователями сайта, и администрация не несет ответственности за их содержание. Просьба не заливать файлы, защищенные авторскими правами, а также файлы нелегального содержания!