[ Сегодня идет свободное скачивание без начисления Download ]


Статистика раздачи
Нет
 
   
 
Top  
 
 
Автобусная остановка
Bus Stop
-«The coming of age of Bo Decker...and the girl who made him a man!»-Страна: США
Жанр: драма, мелодрама, комедияслова
Год выпуска: 1956
Продолжительность: 01:34:27--Перевод: Профессиональный (многоголосый, закадровый) (DVD-Магия)
Перевод: Профессиональный (многоголосый, закадровый) (ОРТ)
Cубтитры: Русские, английские
Оригинальная аудиодорожка: английский--Режиссер:
Джошуа Логан / Joshua Logan
В ролях:
Мэрилин Монро, Дон Мюррэй, Артур О’Коннелл, Бетти Филд, Айлин Хекарт, Роберт Брэй, Хоуп Лэнг, Ганс Конрид, Макс Шоуолтер, Линда БрэйсОписание:В кафе «Синий Дракон» разбитной ковбой Бо, приехавший в город участвовать в родео, решительно и грубо требует от героини фильма внимания и благосклонности. Шери даже вынуждена сесть на автобус, чтобы бежать из города, но Бо отправляется следом.
Автобус заносит снегом и пассажиры вынуждены провести ночь в кафе, где происходит драка между водителем автобуса, защищающим пассажирку, и ковбоем, преследующим эту женщину. Бо терпит постыдное поражение, он унижен. На следующий день, когда буря закончилась, Бо начинает понимать, что ничего не добьется, если будет действовать как скотина.
--Качество видео:BDRemux 1080p
Формат видео: Matroska
Video: MPEG-4 AVC Video 32917 kbps 1080p / 23,976 fps / 16:9 / High Profile 4.1
Audio: Dolby Digital Audio Russian 192 kbps 2.0 / 48 kHz / 192 kbps (MVO -> DVD-Магия)
Audio: Dolby Digital Audio Russian 192 kbps 2.0 / 48 kHz / 192 kbps (MVO -> ОРТ)
Audio: DTS-HD Master Audio English 2511 kbps 4.0 / 48 kHz / 2511 kbps / 24-bit (DTS Core: 4.0 / 48 kHz / 1509 kbps / 24-bit) original
Сэмпл Скриншоты MediaInfo
General
Unique ID : 195057894104095826289528709366904194102 (0x92BEC8AE9D899747BF2FB700FAE30436)
Complete name : F:\Avtobusnaya.ostanovka.1956.BDRemux 1080p.mkv
Format : Matroska
Format version : Version 4 / Version 2
File size : 23.5 GiB
Duration : 1h 34mn
Overall bit rate mode : Variable
Overall bit rate : 35.7 Mbps
Encoded date : UTC 2013-08-14 14:20:48
Writing application : mkvmerge v6.2.0 ('Promised Land') built on Apr 28 2013 12:22:01
Writing library : libebml v1.3.0 + libmatroska v1.4.0
Video
ID : 1
Format : AVC
Format/Info : Advanced Video Codec
Format profile : [email protected]
Format settings, CABAC : Yes
Format settings, ReFrames : 4 frames
Codec ID : V_MPEG4/ISO/AVC
Duration : 1h 34mn
Bit rate mode : Variable
Maximum bit rate : 33.8 Mbps
Width : 1 920 pixels
Height : 1 080 pixels
Display aspect ratio : 16:9
Frame rate mode : Constant
Frame rate : 23.976 fps
Color space : YUV
Chroma subsampling : 4:2:0
Bit depth : 8 bits
Scan type : Progressive
Default : No
Forced : No
Audio #1
ID : 2
Format : AC-3
Format/Info : Audio Coding 3
Mode extension : CM (complete main)
Format settings, Endianness : Big
Codec ID : A_AC3
Duration : 1h 34mn
Bit rate mode : Constant
Bit rate : 192 Kbps
Channel(s) : 2 channels
Channel positions : Front: L R
Sampling rate : 48.0 KHz
Bit depth : 16 bits
Compression mode : Lossy
Stream size : 130 MiB (1%)
Title : MVO (DVD-Маги
Language : Russian
Default : Yes
Forced : No
Audio #2
ID : 3
Format : AC-3
Format/Info : Audio Coding 3
Mode extension : CM (complete main)
Format settings, Endianness : Big
Codec ID : A_AC3
Duration : 1h 34mn
Bit rate mode : Constant
Bit rate : 192 Kbps
Channel(s) : 2 channels
Channel positions : Front: L R
Sampling rate : 48.0 KHz
Bit depth : 16 bits
Compression mode : Lossy
Stream size : 130 MiB (1%)
Title : MVO -(ОРТ)
Language : Russian
Default : No
Forced : No
Audio #3
ID : 4
Format : DTS
Format/Info : Digital Theater Systems
Format profile : MA / Core
Mode : 16
Format settings, Endianness : Big
Codec ID : A_DTS
Duration : 1h 34mn
Bit rate mode : Variable
Bit rate : Unknown / 1 509 Kbps
Channel(s) : 4 channels
Channel positions : Front: L C R, Back: C / Front: L C R, Side: C
Sampling rate : 48.0 KHz
Bit depth : 24 bits
Compression mode : Lossless / Lossy
Title : Original
Language : English
Default : No
Forced : No
Text #1
ID : 5
Format : UTF-8
Codec ID : S_TEXT/UTF8
Codec ID/Info : UTF-8 Plain Text
Title : russian
Language : Russian
Default : No
Forced : No
Text #2
ID : 6
Format : UTF-8
Codec ID : S_TEXT/UTF8
Codec ID/Info : UTF-8 Plain Text
Title : original
Default : No
Forced : No
Menu
00:00:00.000 : en:MAIN TITLES
00:05:00.000 : en:OFF TO THE BIG CITY
00:10:00.000 : en:GRACE'S DINER
00:15:00.000 : en:PHOENIX
00:20:00.000 : en:CHERIE'S DIRECTION
00:25:00.000 : en:BO'S ANGEL
00:30:00.000 : en:BO & CHERIE
00:35:00.000 : en:ENGAGED?
00:40:00.000 : en:GOOD MORNING
00:45:00.000 : en:THE PARADE
00:50:00.000 : en:THE RODEO
00:55:00.000 : en:RUNAWAY BRIDE
01:00:00.000 : en:THE ESCAPE PLAN
01:05:00.000 : en:ROPED IN
01:10:00.000 : en:ABDUCTED
01:15:00.000 : en:LOVE IN MIND
01:20:00.000 : en:SNOWED IN
01:25:00.000 : en:BO'S HARD LESSON
01:30:00.000 : en:APOLOGIES

[Цитировать]



Показать сообщения:    

Текущее время: 05-Дек 15:35

Часовой пояс: UTC + 3


Вы не можете начинать темы
Вы не можете отвечать на сообщения
Вы не можете редактировать свои сообщения
Вы не можете удалять свои сообщения
Вы не можете голосовать в опросах
Вы не можете прикреплять файлы к сообщениям
Вы не можете скачивать файлы

!ВНИМАНИЕ!
Сайт не предоставляет электронные версии произведений, а занимается лишь коллекционированием и каталогизацией ссылок, присылаемых и публикуемых на форуме нашими читателями. Если вы являетесь правообладателем какого-либо представленного материала и не желаете, чтобы ссылка на него находилась в нашем каталоге, свяжитесь с нами, и мы незамедлительно удалим ее. Файлы для обмена на трекере предоставлены пользователями сайта, и администрация не несет ответственности за их содержание. Просьба не заливать файлы, защищенные авторскими правами, а также файлы нелегального содержания!