[ Сегодня идет свободное скачивание без начисления Download ]


Статистика раздачи
Нет
 
   
 
Top  
 
 
-Последний рубеж / Homefront (2013) BDRip [H.264]«На что ты готов ради защиты своей семьи?»- Год выпуска: 2013
Производство: США
Жанр: Боевик, криминал
Режиссер: Гэри Фледер
Продюсер: Сильвестр Сталлоне, Кевин Кинг Темплтон, Джон Томпсон
Актеры: Джейсон Стэйтем, Джеймс Франко, Изабела Видович, Вайнона Райдер, Кейт Босворт, Клэнси Браун, Рашель Лефевр, Омар Бенсон Миллер, Маркус Хестер, Фрэнк Грилло
Описание фильма:
Фил Брокер — бывший агент из отдела борьбы с наркотиками. Фил переезжает в небольшой город вместе с семьей в надежде забыть прошлое. Но он узнает, что город только со стороны кажется тихим и спокойным местом, на самом деле он кишит насилием, наркотиками, а всем этим заправляет злодей по кличке Аллигатор…
Перевод: Дублированный, Одноголосый закадровый (любительский + авторский)
Субтитры: Вшитые отключаемые
Язык субтитров: Русский (присутствует ненормативная лексика), Английский (Full, SDH, SDH-Colored)
Присутствует ненормативная лексика (Русский, Одноголосый закадровый)
Рейтинг MPAA: R (лицам до 17 лет обязательно присутствие взрослого)
Возраст: 16+

Дата мировой премьеры: 27 ноября 2013
Дата российской премьеры: 28 ноября 2013, «Наше Кино»
Продолжительность: 01:40:34
Качество видео: BDRip [H.264] [potroks]
Видеокодек: MPEG-4 AVC/H.264
Битрейт видео: ~2212 kbps
Размер кадра: 1044x434, 23.976 fps
Аудио #1: AC3, 48.0 KHz, 6 ch, 448 Kbps, CBR (Русский, Дубляж)
Аудио #2: AC3, 48.0 KHz, 6 ch, 448 Kbps, CBR (Русский, Одноголосый закадровый / Д. Есарев)
Аудио #3: AC3, 48.0 KHz, 6 ch, 448 Kbps, CBR (Русский, Одноголосый закадровый / А. Гаврилов)
Аудио #4: AC3, 48.0 KHz, 6 ch, 448 Kbps, CBR (Английский)

MediaInfo

Формат                                   : Matroska
Версия формата                           : Version 2
Размер файла                             : 2,81 Гбайт
Продолжительность                        : 1 ч. 40 м.
Общий поток                              : 4005 Кбит/сек
Название фильма                          : Homefront (2013)
Дата кодирования                         : UTC 2014-05-25 21:06:55
Программа кодирования                    : mkvmerge v6.9.1 ('Blue Panther') 64bit built on Apr 18 2014 18:23:38
Библиотека кодирования                   : libebml v1.3.0 + libmatroska v1.4.1
Видео
Идентификатор                            : 1
Формат                                   : AVC
Формат/Информация                        : Advanced Video Codec
Профиль формата                          : [url=mailto:High@L4.1]High@L4.1[/url]
Параметр CABAC формата                   : Да
Параметр ReFrames формата                : 10 кадров
Идентификатор кодека                     : V_MPEG4/ISO/AVC
Продолжительность                        : 1 ч. 40 м.
Битрейт                                  : 2212 Кбит/сек
Ширина                                   : 1044 пикселя
Высота                                   : 434 пикселя
Соотношение сторон                       : 2,40:1
Режим частоты кадров                     : Постоянный
Частота кадров                           : 23,976 кадра/сек
Цветовое пространство                    : YUV
Субдискретизация насыщенности            : 4:2:0
Битовая глубина                          : 8 бит
Тип развёртки                            : Прогрессивная
Бит/(Пиксели*Кадры)                      : 0.204
Размер потока                            : 1,50 Гбайт (53%)
Библиотека кодирования                   : x264 core 130 r2273 b3065e6
Настройки программы                      : cabac=1 / ref=10 / deblock=1:-2:-2 / analyse=0x3:0x133 / me=umh / subme=11 / psy=1 / psy_rd=1.03:0.00 / mixed_ref=1 / me_range=32 / chroma_me=1 / trellis=2 / 8x8dct=1 / cqm=0 / deadzone=21,11 / fast_pskip=0 / chroma_qp_offset=-2 / threads=6 / lookahead_threads=1 / sliced_threads=0 / nr=0 / decimate=0 / interlaced=0 / bluray_compat=0 / constrained_intra=0 / bframes=11 / b_pyramid=2 / b_adapt=2 / b_bias=0 / direct=3 / weightb=1 / open_gop=0 / weightp=2 / keyint=250 / keyint_min=23 / scenecut=40 / intra_refresh=0 / rc_lookahead=60 / rc=2pass / mbtree=0 / bitrate=2212 / ratetol=1.0 / qcomp=0.70 / qpmin=0 / qpmax=69 / qpstep=4 / cplxblur=20.0 / qblur=0.5 / vbv_maxrate=20000 / vbv_bufsize=20000 / nal_hrd=none / ip_ratio=1.30 / pb_ratio=1.25 / aq=1:0.80
Язык                                     : English
Default                                  : Да
Forced                                   : Нет
Аудио #1
Идентификатор                            : 2
Формат                                   : AC-3
Формат/Информация                        : Audio Coding 3
Расширение режима                        : CM (complete main)
Параметр Endianness формата              : Big
Идентификатор кодека                     : A_AC3
Продолжительность                        : 1 ч. 40 м.
Вид битрейта                             : Постоянный
Битрейт                                  : 448 Кбит/сек
Каналы                                   : 6 каналов
Расположение каналов                     : Front: L C R, Side: L R, LFE
Частота                                  : 48,0 КГц
Битовая глубина                          : 16 бит
Метод сжатия                             : С потерями
Размер потока                            : 322 Мбайт (11%)
Язык                                     : Russian
Default                                  : Да
Forced                                   : Нет
Аудио #2
Идентификатор                            : 3
Формат                                   : AC-3
Формат/Информация                        : Audio Coding 3
Расширение режима                        : CM (complete main)
Параметр Endianness формата              : Big
Идентификатор кодека                     : A_AC3
Продолжительность                        : 1 ч. 40 м.
Вид битрейта                             : Постоянный
Битрейт                                  : 448 Кбит/сек
Каналы                                   : 6 каналов
Расположение каналов                     : Front: L C R, Side: L R, LFE
Частота                                  : 48,0 КГц
Битовая глубина                          : 16 бит
Метод сжатия                             : С потерями
Размер потока                            : 322 Мбайт (11%)
Заголовок                                : Д. Есарев
Язык                                     : Russian
Default                                  : Нет
Forced                                   : Нет
Аудио #3
Идентификатор                            : 4
Формат                                   : AC-3
Формат/Информация                        : Audio Coding 3
Расширение режима                        : CM (complete main)
Параметр Endianness формата              : Big
Идентификатор кодека                     : A_AC3
Продолжительность                        : 1 ч. 40 м.
Вид битрейта                             : Постоянный
Битрейт                                  : 448 Кбит/сек
Каналы                                   : 6 каналов
Расположение каналов                     : Front: L C R, Side: L R, LFE
Частота                                  : 48,0 КГц
Битовая глубина                          : 16 бит
Метод сжатия                             : С потерями
Размер потока                            : 322 Мбайт (11%)
Заголовок                                : А. Гаврилов
Язык                                     : Russian
Default                                  : Нет
Forced                                   : Нет
Аудио #4
Идентификатор                            : 5
Формат                                   : AC-3
Формат/Информация                        : Audio Coding 3
Расширение режима                        : CM (complete main)
Параметр Endianness формата              : Big
Идентификатор кодека                     : A_AC3
Продолжительность                        : 1 ч. 40 м.
Вид битрейта                             : Постоянный
Битрейт                                  : 448 Кбит/сек
Каналы                                   : 6 каналов
Расположение каналов                     : Front: L C R, Side: L R, LFE
Частота                                  : 48,0 КГц
Битовая глубина                          : 16 бит
Метод сжатия                             : С потерями
Размер потока                            : 322 Мбайт (11%)
Язык                                     : English
Default                                  : Нет
Forced                                   : Нет
Текст #1
Идентификатор                            : 6
Формат                                   : UTF-8
Идентификатор кодека                     : S_TEXT/UTF8
Идентификатор кодека/Информация          : UTF-8 Plain Text
Язык                                     : Russian
Default                                  : Нет
Forced                                   : Нет
Текст #2
Идентификатор                            : 7
Формат                                   : UTF-8
Идентификатор кодека                     : S_TEXT/UTF8
Идентификатор кодека/Информация          : UTF-8 Plain Text
Заголовок                                : Full
Язык                                     : English
Default                                  : Нет
Forced                                   : Нет
Текст #3
Идентификатор                            : 8
Формат                                   : UTF-8
Идентификатор кодека                     : S_TEXT/UTF8
Идентификатор кодека/Информация          : UTF-8 Plain Text
Заголовок                                : SDH
Язык                                     : English
Default                                  : Нет
Forced                                   : Нет
Текст #4
Идентификатор                            : 9
Формат                                   : UTF-8
Идентификатор кодека                     : S_TEXT/UTF8
Идентификатор кодека/Информация          : UTF-8 Plain Text
Заголовок                                : SDH-Colored
Язык                                     : English
Default                                  : Нет
Forced                                   : Нет
Меню
00:00:00.000                             : en:(01)00:00:00:000
00:04:55.461                             : en:(02)00:04:55:461
00:09:14.095                             : en:(03)00:09:14:095
00:14:55.853                             : en:(04)00:14:55:853
00:21:42.426                             : en:(05)00:21:42:426
00:25:03.001                             : en:(06)00:25:03:001
00:31:23.214                             : en:(07)00:31:23:214
00:34:04.000                             : en:(08)00:34:04:000
00:39:01.088                             : en:(09)00:39:01:088
00:45:47.995                             : en:(10)00:45:47:995
00:49:29.257                             : en:(11)00:49:29:257
00:55:16.479                             : en:(12)00:55:16:479
01:01:55.420                             : en:(13)01:01:55:420
01:08:56.173                             : en:(14)01:08:56:173
01:12:27.634                             : en:(15)01:12:27:634
01:16:00.973                             : en:(16)01:16:00:973
01:19:15.250                             : en:(17)01:19:15:250
01:24:02.620                             : en:(18)01:24:02:620
01:29:39.123                             : en:(19)01:29:39:123
01:35:16.961                             : en:(20)01:35:16:961
01:40:34.611                             : en:(21)01:40:34:611
Скриншоты:

[Цитировать]



Показать сообщения:    

Текущее время: 11-Дек 03:21

Часовой пояс: UTC + 3


Вы не можете начинать темы
Вы не можете отвечать на сообщения
Вы не можете редактировать свои сообщения
Вы не можете удалять свои сообщения
Вы не можете голосовать в опросах
Вы не можете прикреплять файлы к сообщениям
Вы не можете скачивать файлы

!ВНИМАНИЕ!
Сайт не предоставляет электронные версии произведений, а занимается лишь коллекционированием и каталогизацией ссылок, присылаемых и публикуемых на форуме нашими читателями. Если вы являетесь правообладателем какого-либо представленного материала и не желаете, чтобы ссылка на него находилась в нашем каталоге, свяжитесь с нами, и мы незамедлительно удалим ее. Файлы для обмена на трекере предоставлены пользователями сайта, и администрация не несет ответственности за их содержание. Просьба не заливать файлы, защищенные авторскими правами, а также файлы нелегального содержания!