[ Сегодня идет свободное скачивание без начисления Download ]


Статистика раздачи
Нет
 
   
 
Top  
 
 
-Воздушный маршал / Non-Stop (2014) BDRip- Год выпуска: 2014
Производство: Великобритания, Франция, США / Silver Pictures
Жанр: Детектив, Триллер, Боевик
Режиссер: Хауме Кольет-Серра
Продюсер: Алекс Хейнеман, Эндрю Рона, Джоэл Силвер
Актеры: Лиам Нисон, Джулианна Мур, Скут МакНэйри, Мишель Докери, Нэйт Паркер, Кори Столл, Лупита Нионго, Омар Метуолли, Джейсон Батлер Харнер, Лайнас Роуч
Описание фильма:
Межконтинентальный авиарейс. Билл Маркс, воздушный маршал, который обеспечивает безопасность пассажиров, получает сообщения с угрозами от маньяка-террориста. Преступник просчитал все ходы и подставил под обвинение самого спецагента. Теперь Маркс — цель спецслужб США. Ему остается одно: вычислить и обезвредить преступника, спасти пассажиров и свою любовь, которую он обретает на краю гибели. До взрыва остаются считанные минуты…
Перевод: Дублированный (Чистый звук)
Вид субтитров: Вшитые отключаемые
Язык субтитров: Русский (forced), английский (full, SDH)

Дата мировой премьеры: 27 января 2014
Дата российской премьеры: 12 марта 2014, «Парадиз»
Дата выхода DVD/Blu-Ray релиза: 1 июля 2014, «Парадиз / Активижен»
Рейтинг MPAA: PG-13
Возраст: 12+
Продолжительность: 01:46:37
Качество видео: BDRip [AMIABLE] [profile-LQ]
Видео: MPEG-4 AVC/H.264, 1920x800 (2.40:1), ~8765 kbps, 23.976 fps, 0.238 bit/pixel
Аудио »1: AC3 2.0, 320 kbps, 48.0 KHz, 16-bit (Русский) / Дубляж
Аудио »2: DTS 5.1, 1536 kbps, 48.0 KHz, 24-bit (Английский) / Оригинал

MediaInfo:

Формат : Matroska
Версия формата : Version 2
Размер файла : 7,89 Гбайт
Продолжительность : 1 ч. 46 м.
Общий поток : 10,6 Мбит/сек
Название фильма : Non-Stop (2014)
Дата кодирования : UTC 2014-05-26 04:33:43
Программа кодирования : mkvmerge v6.4.1 ('Omega Point') built on Sep 16 2013 22:05:10
Библиотека кодирования : libebml v1.3.0 + libmatroska v1.4.1
Видео
Идентификатор : 1
Формат : AVC
Формат/Информация : Advanced Video Codec
Профиль формата : [email protected]
Параметр CABAC формата : Да
Параметр ReFrames формата : 5 кадров
Идентификатор кодека : V_MPEG4/ISO/AVC
Продолжительность : 1 ч. 46 м.
Битрейт : 8765 Кбит/сек
Ширина : 1920 пикселей
Высота : 800 пикселей
Соотношение сторон : 2,40:1
Режим частоты кадров : Постоянный
Частота кадров : 23,976 кадра/сек
Цветовое пространство : YUV
Субдискретизация насыщенности : 4:2:0
Битовая глубина : 8 бит
Тип развёртки : Прогрессивная
Бит/(Пиксели*Кадры) : 0.238
Размер потока : 6,37 Гбайт (81%)
Библиотека кодирования : x264 core 142 r2431 ac76440
Настройки программы : cabac=1 / ref=5 / deblock=1:-3:-3 / analyse=0x3:0x113 / me=umh / subme=8 / psy=1 / psy_rd=1.00:0.00 / mixed_ref=1 / me_range=16 / chroma_me=1 / trellis=1 / 8x8dct=1 / cqm=0 / deadzone=21,11 / fast_pskip=1 / chroma_qp_offset=-2 / threads=12 / lookahead_threads=2 / sliced_threads=0 / nr=0 / decimate=1 / interlaced=0 / bluray_compat=0 / constrained_intra=0 / bframes=3 / b_pyramid=2 / b_adapt=2 / b_bias=0 / direct=3 / weightb=1 / open_gop=0 / weightp=2 / keyint=240 / keyint_min=24 / scenecut=40 / intra_refresh=0 / rc_lookahead=50 / rc=2pass / mbtree=1 / bitrate=8765 / ratetol=1.0 / qcomp=0.60 / qpmin=0 / qpmax=69 / qpstep=4 / cplxblur=20.0 / qblur=0.5 / ip_ratio=1.40 / aq=1:1.00
Язык : English
Default : Да
Forced : Нет
Аудио #1
Идентификатор : 2
Формат : AC-3
Формат/Информация : Audio Coding 3
Расширение режима : CM (complete main)
Параметр Endianness формата : Big
Идентификатор кодека : A_AC3
Продолжительность : 1 ч. 46 м.
Вид битрейта : Постоянный
Битрейт : 320 Кбит/сек
Каналы : 2 канала
Расположение каналов : Front: L R
Частота : 48,0 КГц
Битовая глубина : 16 бит
Метод сжатия : С потерями
Размер потока : 244 Мбайт (3%)
Заголовок : AC3
Язык : Russian
Default : Да
Forced : Нет
Аудио #2
Идентификатор : 3
Формат : DTS
Формат/Информация : Digital Theater Systems
Идентификатор кодека : A_DTS
Продолжительность : 1 ч. 46 м.
Вид битрейта : Постоянный
Битрейт : 1510 Кбит/сек
Каналы : 6 каналов
Расположение каналов : Front: L C R, Side: L R, LFE
Частота : 48,0 КГц
Битовая глубина : 24 бит
Метод сжатия : С потерями
Размер потока : 1,12 Гбайт (14%)
Заголовок : DTS
Язык : English
Default : Нет
Forced : Нет
Текст #1
Идентификатор : 4
Формат : UTF-8
Идентификатор кодека : S_TEXT/UTF8
Идентификатор кодека/Информация : UTF-8 Plain Text
Заголовок : Forced
Язык : Russian
Default : Да
Forced : Нет
Текст #2
Идентификатор : 5
Формат : UTF-8
Идентификатор кодека : S_TEXT/UTF8
Идентификатор кодека/Информация : UTF-8 Plain Text
Заголовок : Full
Язык : English
Default : Нет
Forced : Нет
Текст #3
Идентификатор : 6
Формат : UTF-8
Идентификатор кодека : S_TEXT/UTF8
Идентификатор кодека/Информация : UTF-8 Plain Text
Заголовок : SDH
Язык : English
Default : Нет
Forced : Нет
Меню
00:00:00.000 : en:00:00:00.000
00:04:24.639 : en:00:04:24.639
00:10:29.045 : en:00:10:29.045
00:14:47.053 : en:00:14:47.053
00:18:51.839 : en:00:18:51.839
00:24:22.127 : en:00:24:22.127
00:29:44.574 : en:00:29:44.574
00:35:48.605 : en:00:35:48.605
00:39:28.491 : en:00:39:28.491
00:45:41.572 : en:00:45:41.572
00:49:03.941 : en:00:49:03.941
00:55:17.731 : en:00:55:17.731
01:01:59.257 : en:01:01:59.257
01:08:42.327 : en:01:08:42.327
01:12:16.999 : en:01:12:16.999
01:18:14.982 : en:01:18:14.982
01:26:02.032 : en:01:26:02.032
01:30:46.191 : en:01:30:46.191
01:36:14.727 : en:01:36:14.727
01:40:13.799 : en:01:40:13.799
Скриншоты:


Время раздачи: c 20:00 до 23:00

[Цитировать]



Показать сообщения:    

Текущее время: 06-Дек 08:49

Часовой пояс: UTC + 3


Вы не можете начинать темы
Вы не можете отвечать на сообщения
Вы не можете редактировать свои сообщения
Вы не можете удалять свои сообщения
Вы не можете голосовать в опросах
Вы не можете прикреплять файлы к сообщениям
Вы не можете скачивать файлы

!ВНИМАНИЕ!
Сайт не предоставляет электронные версии произведений, а занимается лишь коллекционированием и каталогизацией ссылок, присылаемых и публикуемых на форуме нашими читателями. Если вы являетесь правообладателем какого-либо представленного материала и не желаете, чтобы ссылка на него находилась в нашем каталоге, свяжитесь с нами, и мы незамедлительно удалим ее. Файлы для обмена на трекере предоставлены пользователями сайта, и администрация не несет ответственности за их содержание. Просьба не заливать файлы, защищенные авторскими правами, а также файлы нелегального содержания!