[ Сегодня идет свободное скачивание без начисления Download ]


Статистика раздачи
Нет
 
   
 
Top  
 
 
-22 минуты (2014) WEBRip- «Своих не бросаем»-- Год выпуска: 2014
Производство: Россия | Централ Партнершип
Жанр: Боевик
Описание фильма:
Морпех — первогодок Саня Ежов оказывается среди пиратов на захваченном танкере. Он знает — товарищи не бросят. Ему нужно выжить и помочь своим, когда начнется штурм. Фильм основан на реальных событиях 5 мая 2010 года, когда морские пехотинцы БПК «Маршал Шапошников» освободили захваченный в водах Аденского залива российский танкер «Московский университет». У них было только 22 минуты без права на ошибку…
Режиссер: Василий Сериков
Продюсер: Алексей Сидоров
Актеры: Макар Запорожский, Денис Никифоров, Виктор Сухоруков, Екатерина Маликова, Гаэль Камилинди, Александр Галибин, Владислав Демин, Ибрагим Тооре, Софья Козко, Иван Породнов
Перевод: Не требуется
Язык: Русский
Субтитры: Отсутствуют

Дата мировой премьеры: 8 мая 2014
Дата российской премьеры: 8 мая 2014, «Централ Партнершип»
Продолжительность: 01:15:22
Качество видео: WEBRip
Видеокодек: Xvid
Битрейт видео: ~2199 Kb/s
Размер кадра: 720x400
Аудиокодек: AC3 2.0
Битрейт аудио: 384 kb/s
Сэмпл: Скачать

MediaInfo:

Общее
Полное имя                               :22.Minunty.2014.O.WEBRip.1400MB.nnm-club.avi
Формат                                   : AVI
Формат/Информация                        : Audio Video Interleave
Размер файла                             : 1,37 Гбайт
Продолжительность                        : 1 ч. 15 м.
Общий поток                              : 2592 Кбит/сек
Программа кодирования                    : VirtualDubMod 1.5.10.3 || (build 2550/release)
Библиотека кодирования                   : VirtualDubMod build 2550/release
Видео
Идентификатор                            : 0
Формат                                   : MPEG-4 Visual
Профиль формата                          : Advanced [email protected]
Параметр BVOP формата                    : 2
Параметр QPel формата                    : Нет
Параметр GMC формата                     : Без точки перехода
Параметр матрицы формата                 : Default (H.263)
Идентификатор кодека                     : XVID
Идентификатор кодека/Подсказка           : XviD
Продолжительность                        : 1 ч. 15 м.
Битрейт                                  : 2199 Кбит/сек
Ширина                                   : 720 пикселей
Высота                                   : 400 пикселей
Соотношение сторон                       : 16:9
Частота кадров                           : 25,000 кадров/сек
Цветовое пространство                    : YUV
Субдискретизация насыщенности            : 4:2:0
Битовая глубина                          : 8 бит
Тип развёртки                            : Прогрессивная
Метод сжатия                             : С потерями
Бит/(Пиксели*Кадры)                      : 0.305
Размер потока                            : 1,16 Гбайт (85%)
Библиотека кодирования                   : XviD 1.2.1 (UTC 2008-12-04)
Аудио
Идентификатор                            : 1
Формат                                   : AC-3
Формат/Информация                        : Audio Coding 3
Расширение режима                        : CM (complete main)
Параметр Endianness формата              : Big
Идентификатор кодека                     : 2000
Продолжительность                        : 1 ч. 15 м.
Вид битрейта                             : Постоянный
Битрейт                                  : 384 Кбит/сек
Каналы                                   : 2 канала
Расположение каналов                     : Front: L R
Частота                                  : 48,0 КГц
Битовая глубина                          : 16 бит
Метод сжатия                             : С потерями
Размер потока                            : 207 Мбайт (15%)
Выравнивание                             : Разделение по промежуткам
Продолжительность промежутка             : 40  мс. (1,00 видеокадр)
Время предзагрузки промежутка            : 500  мс.
Скриншоты:
Время раздачи: 24/7 (до 10 скачавших)

[Цитировать]

Топик был перенесен из форума Новинки кинопроката в форум Боевик
Henkok



Показать сообщения:    

Текущее время: 04-Дек 02:53

Часовой пояс: UTC + 3


Вы не можете начинать темы
Вы не можете отвечать на сообщения
Вы не можете редактировать свои сообщения
Вы не можете удалять свои сообщения
Вы не можете голосовать в опросах
Вы не можете прикреплять файлы к сообщениям
Вы не можете скачивать файлы

!ВНИМАНИЕ!
Сайт не предоставляет электронные версии произведений, а занимается лишь коллекционированием и каталогизацией ссылок, присылаемых и публикуемых на форуме нашими читателями. Если вы являетесь правообладателем какого-либо представленного материала и не желаете, чтобы ссылка на него находилась в нашем каталоге, свяжитесь с нами, и мы незамедлительно удалим ее. Файлы для обмена на трекере предоставлены пользователями сайта, и администрация не несет ответственности за их содержание. Просьба не заливать файлы, защищенные авторскими правами, а также файлы нелегального содержания!