[ Сегодня идет свободное скачивание без начисления Download ]


Статистика раздачи
Нет
 
   
 
Top  
 
 
-Старое ружье / Le vieux fusil (1975) BDRemux
«Revenge has never been so sweet!»
- Год выпуска: 1975
Производство: Франция, Германия (ФРГ) / Mercure Productions
Жанр: Триллер, драма, военный
Описание фильма:
Франция, 1944 год. Хирург местной больницы, помогающий Сопротивлению, отсылает жену и дочь в деревню, а когда приезжает их навестить, видит тела зверски убитых людей, среди которых его застреленная дочь и соженная из огнемета жена. Эсэсовцы же все еще были на месте расправы, празднуя «победу» местного значения. Тогда хирург достает старое ружье, и начинается возмездие — доктор отлично знал все уголки этого старинного, неприступного замка, а дома, как говорится, и стены помогают…
Режиссер: Робер Энрико / Robert Enrico
Продюсер: Пьер Каро
Актеры: Филипп Нуаре, Роми Шнайдер, Жан Буиз, Иоахим Ханзен, Роберт Хоффманн, Карл Михаэль Фоглер, Каролина Бономм, Катрин Делапорте, Мадлен Озерэ, Даниэль Бретон
Язык: Русский, французский
Перевод: Многоголосый закадровый (профессиональный), Дублированный (со вставками многоголосого)
Вид субтитров: Вшитые отключаемые
Язык субтитров: Русский, французский (forced, full)

За исходный материал большое спасибо: HDClub'у & AnryV
Дата мировой премьеры: 22 августа 1975
Дата выхода DVD релиза: 11 июня 2009, «Cinema Prestige»
Рейтинг MPAA: R
Возраст: 16+
Продолжительность: 01:37:46
Качество видео: BDRemux
Видео: MPEG-4 AVC/H.264 (High Profile 4.1), 1920x1080, ~23963 kbps, 0.453 bit/pixel, 25 fps
Аудио 1: AC3 2.0, 192 kbps, 48 kHz, 16-bit [Русский - многоголосый закадровый «Cinema Prestige»]
Аудио 2: AC3 2.0, 192 kbps, 48 kHz, 16-bit [Русский - дублированный «+ вставки MVO »]
Аудио 3: DTS-HD MA 2.0, 1597 kbps, 48 kHz, 16-bit [Французский - оригинал]

Отчёт MediaInfo

Полное имя
: D:\Старое.ружье-Le.vieux.fusil.(1975).BDRemux.[1080i].mkv
Формат : Matroska
Версия формата : Version 2
Размер файла : 17,7 Гбайт
Продолжительность : 1 ч. 37 м.
Режим общего битрейта : Переменный
Общий поток : 25,9 Мбит/сек
Название фильма : Le vieux fusil (1975) / Lelya_K for NNM-Club
Дата кодирования : UTC 2014-05-27 17:55:03
Программа кодирования : mkvmerge v5.7.0 ('The Whirlwind') built on Aug 7 2012 14:11:40
Библиотека кодирования : libebml v1.2.3 + libmatroska v1.3.0
Attachment : Yes
Видео
Идентификатор : 1
Формат : AVC
Формат/Информация : Advanced Video Codec
Профиль формата : High@L4.1
Параметр CABAC формата : Да
Параметр ReFrames формата : 4 кадра
Идентификатор кодека : V_MPEG4/ISO/AVC
Продолжительность : 1 ч. 37 м.
Вид битрейта : Переменный
Битрейт : 23,5 Мбит/сек
Максимальный битрейт : 27,6 Мбит/сек
Ширина : 1920 пикселей
Высота : 1080 пикселей
Соотношение сторон : 16:9
Режим частоты кадров : Постоянный
Частота кадров : 25,000 кадров/сек
Стандарт вещания : PAL
Цветовое пространство : YUV
Субдискретизация насыщенности : 4:2:0
Битовая глубина : 8 бит
Тип развёртки : MBAFF
Бит/(Пиксели*Кадры) : 0.453
Размер потока : 16,0 Гбайт (90%)
Заголовок : Старое.ружье-Le.vieux.fusil.(1975).BDRemux.[1080i]
Язык : French
Default : Да
Forced : Нет
Основные цвета : BT.709
Характеристики трансфера : BT.709
Коэффициенты матрицы : BT.709
Аудио #1
Идентификатор : 2
Формат : AC-3
Формат/Информация : Audio Coding 3
Расширение режима : CM (complete main)
Параметр Endianness формата : Big
Идентификатор кодека : A_AC3
Продолжительность : 1 ч. 37 м.
Вид битрейта : Постоянный
Битрейт : 192 Кбит/сек
Каналы : 2 канала
Расположение каналов : Front: L R
Частота : 48,0 КГц
Битовая глубина : 16 бит
Метод сжатия : С потерями
Размер потока : 134 Мбайт (1%)
Заголовок : AC3 2.0 / 192 kbps / MVO (Cinema Prestige)
Язык : Russian
Default : Да
Forced : Нет
Аудио #2
Идентификатор : 3
Формат : AC-3
Формат/Информация : Audio Coding 3
Расширение режима : CM (complete main)
Параметр Endianness формата : Big
Идентификатор кодека : A_AC3
Продолжительность : 1 ч. 37 м.
Вид битрейта : Постоянный
Битрейт : 192 Кбит/сек
Каналы : 2 канала
Расположение каналов : Front: L R
Частота : 48,0 КГц
Битовая глубина : 16 бит
Метод сжатия : С потерями
Размер потока : 134 Мбайт (1%)
Заголовок : AC3 2.0 / 192 kbps / Dub (+ вставки MVO)
Язык : Russian
Default : Нет
Forced : Нет
Аудио #3
Идентификатор : 4
Формат : DTS
Формат/Информация : Digital Theater Systems
Профиль формата : MA / Core
Идентификатор кодека : A_DTS
Продолжительность : 1 ч. 37 м.
Вид битрейта : Переменный
Битрейт : 1573 Кбит/сек / 1510 Кбит/сек
Каналы : 2 канала
Расположение каналов : Front: L R
Частота : 48,0 КГц
Битовая глубина : 16 бит
Метод сжатия : Без потерь / Lossy
Заголовок : DTS-HD MA 2.0 / 1597 kbps / Original
Язык : French
Default : Нет
Forced : Нет
Текст #1
Идентификатор : 5
Формат : UTF-8
Идентификатор кодека : S_TEXT/UTF8
Идентификатор кодека/Информация : UTF-8 Plain Text
Заголовок : Full
Язык : Russian
Default : Нет
Forced : Нет
Текст #2
Идентификатор : 6
Формат : UTF-8
Идентификатор кодека : S_TEXT/UTF8
Идентификатор кодека/Информация : UTF-8 Plain Text
Заголовок : Forced
Язык : French
Default : Нет
Forced : Нет
Текст #3
Идентификатор : 7
Формат : UTF-8
Идентификатор кодека : S_TEXT/UTF8
Идентификатор кодека/Информация : UTF-8 Plain Text
Заголовок : Full
Язык : French
Default : Нет
Forced : Нет
Меню
00:00:00.000 : fr:Chapter 1
00:08:31.880 : fr:Chapter 2
00:19:13.320 : fr:Chapter 3
00:25:59.280 : fr:Chapter 4
00:35:55.520 : fr:Chapter 5
00:42:46.520 : fr:Chapter 6
00:50:41.840 : fr:Chapter 7
01:01:12.880 : fr:Chapter 8
01:09:43.439 : fr:Chapter 9
01:16:22.560 : fr:Chapter 10
01:21:53.320 : fr:Chapter 11
01:27:00.080 : fr:Chapter 12
01:34:34.240 : fr:Chapter 13
За исходный материал и работу над аудидорожкой №2, большое спасибо: HDClub'у & AnryV.
Цитата: • Оригинальный Blu-ray из личной коллекции;
• На диске Cinema Prestige дубляж убит шумодавом. Поэтому сделал из "шумного" исходника - почистил только импульсные наводки, заменил вставки одноголосого перевода на многоголосый, восстановил (насколько получилось) шумовую и частотную однородность всей дорожки.

Награды и кинопремии

Сезар, 1976 год
Победитель (3):
  • Лучший фильм
  • Лучший актер (Филипп Нуаре)
  • Лучший саундтрек
Номинации (6):
  • Лучший актер второго плана (Жан Буиз)
  • Лучший режиссер (Робер Энрико)
  • Лучший адаптированный или оригинальный сценарий
  • Лучшая работа оператора
  • Лучший звук
  • Лучший монтаж
Скриншоты:

[Цитировать]



Показать сообщения:    

Текущее время: 07-Дек 11:45

Часовой пояс: UTC + 3


Вы не можете начинать темы
Вы не можете отвечать на сообщения
Вы не можете редактировать свои сообщения
Вы не можете удалять свои сообщения
Вы не можете голосовать в опросах
Вы не можете прикреплять файлы к сообщениям
Вы не можете скачивать файлы

!ВНИМАНИЕ!
Сайт не предоставляет электронные версии произведений, а занимается лишь коллекционированием и каталогизацией ссылок, присылаемых и публикуемых на форуме нашими читателями. Если вы являетесь правообладателем какого-либо представленного материала и не желаете, чтобы ссылка на него находилась в нашем каталоге, свяжитесь с нами, и мы незамедлительно удалим ее. Файлы для обмена на трекере предоставлены пользователями сайта, и администрация не несет ответственности за их содержание. Просьба не заливать файлы, защищенные авторскими правами, а также файлы нелегального содержания!