[ Сегодня идет свободное скачивание без начисления Download ]


Статистика раздачи
Нет
 
   
 
Top  
 
 
-Воздушный маршал / Non-Stop (2014) BDRip
«Захват самолёта - это только начало»
- Год выпуска: 2014
Производство: Великобритания, Франция, США / Studio Canal
Жанр: Детектив, триллер, боевик
Описание фильма:
Межконтинентальный авиарейс. Билл Маркс, воздушный маршал, который обеспечивает безопасность пассажиров, получает сообщения с угрозами от маньяка-террориста. Преступник просчитал все ходы и подставил под обвинение самого спецагента. Теперь Маркс — цель спецслужб США. Ему остается одно: вычислить и обезвредить преступника, спасти пассажиров и свою любовь, которую он обретает на краю гибели. До взрыва остаются считанные минуты…
Режиссер: Хауме Кольет-Серра / Jaume Collet-Serra
Продюсер: Алекс Хейнеман, Эндрю Рона, Джоэл Силвер
Актеры: Лиам Нисон, Джулианна Мур, Скут МакНэйри, Мишель Докери, Нэйт Паркер, Кори Столл, Лупита Нионго, Омар Метуолли, Джейсон Батлер Харнер, Лайнас Роуч
Язык: Русский, английский
Перевод: Дублированный [Line]
Вид субтитров: Вшитые отключаемые
Язык субтитров: Русский (forced for sms), английский (full, SDH)

Дата мировой премьеры: 27 января 2014
Дата российской премьеры: 12 марта 2014, «Парадиз»
Дата выхода DVD релиза: 1 июля 2014, «Парадиз / Активижен»
Дата выхода Blu-Ray релиза: 1 июля 2014, «Парадиз / Активижен»
Рейтинг MPAA: PG-13
Возраст: 12+
Продолжительность: 01:46:37
Качество видео: BDRip [CHD]
Видео: MPEG-4 AVC/H.264, 1920x800 (2.40:1), ~11250 kbps, 0.305 bit/pixel, 23.976 fps
Аудио 1: DTS 5.1, 1536 kbps, 48 KHz, 24-bit [Русский - дублированный «Центральный канал с линии»]
Аудио 2: AC3 2.0, 320 kbps, 48 kHz, 16-bit [Русский - дублированный «Line»]
Аудио 3: DTS 5.1, 1536 kbps, 48 kHz, 24-bit [Английский - оригинал]

x264 log

x264 [info]: frame I:1974 Avg QP:17.89 size:263149
x264 [info]: frame P:37073 Avg QP:20.06 size: 88572
x264 [info]: frame B:114337 Avg QP:22.43 size: 45187

MI

Полное имя : D:\Воздушный.маршал-Non-Stop.(2014).BDRip.[1080p].mkv
Формат : Matroska
Версия формата : Version 2
Размер файла : 10,8 Гбайт
Продолжительность : 1 ч. 46 м.
Общий поток : 14,6 Мбит/сек
Название фильма : Non-Stop (2014)
Дата кодирования : UTC 2014-05-27 07:50:02
Программа кодирования : mkvmerge v5.7.0 ('The Whirlwind') built on Aug 7 2012 14:11:40
Библиотека кодирования : libebml v1.2.3 + libmatroska v1.3.0
Attachment : Yes
Видео
Идентификатор : 1
Формат : AVC
Формат/Информация : Advanced Video Codec
Профиль формата : High@L4.1
Параметр CABAC формата : Да
Параметр ReFrames формата : 5 кадров
Идентификатор кодека : V_MPEG4/ISO/AVC
Продолжительность : 1 ч. 46 м.
Битрейт : 11,3 Мбит/сек
Ширина : 1920 пикселей
Высота : 800 пикселей
Соотношение сторон : 2,40:1
Режим частоты кадров : Постоянный
Частота кадров : 23,976 кадра/сек
Цветовое пространство : YUV
Субдискретизация насыщенности : 4:2:0
Битовая глубина : 8 бит
Тип развёртки : Прогрессивная
Бит/(Пиксели*Кадры) : 0.305
Размер потока : 8,14 Гбайт (75%)
Заголовок : Воздушный.маршал-Non-Stop.(2014).BDRip.[1080p]
Библиотека кодирования : x264 core 138 r2356 a1d3d17
Настройки программы : cabac=1 / ref=5 / deblock=1:-3:-3 / analyse=0x3:0x113 / me=umh / subme=10 / psy=1 / psy_rd=1.05:0.10 / mixed_ref=1 / me_range=32 / chroma_me=1 / trellis=2 / 8x8dct=1 / cqm=0 / deadzone=21,11 / fast_pskip=0 / chroma_qp_offset=-2 / threads=18 / lookahead_threads=1 / sliced_threads=0 / nr=0 / decimate=1 / interlaced=0 / bluray_compat=0 / constrained_intra=0 / bframes=5 / b_pyramid=2 / b_adapt=2 / b_bias=0 / direct=3 / weightb=1 / open_gop=0 / weightp=2 / keyint=250 / keyint_min=23 / scenecut=40 / intra_refresh=0 / rc=2pass / mbtree=0 / bitrate=11250 / ratetol=1.0 / qcomp=0.70 / qpmin=0 / qpmax=69 / qpstep=4 / cplxblur=20.0 / qblur=0.5 / ip_ratio=1.40 / pb_ratio=1.30 / aq=2:1.00
Язык : English
Default : Да
Forced : Нет
Аудио #1
Идентификатор : 2
Формат : DTS
Формат/Информация : Digital Theater Systems
Идентификатор кодека : A_DTS
Продолжительность : 1 ч. 46 м.
Вид битрейта : Постоянный
Битрейт : 1510 Кбит/сек
Каналы : 6 каналов
Расположение каналов : Front: L C R, Side: L R, LFE
Частота : 48,0 КГц
Битовая глубина : 24 бит
Метод сжатия : С потерями
Размер потока : 1,12 Гбайт (10%)
Заголовок : DTS 5.1 / 1536 kbps / Dub (центр с линии)
Язык : Russian
Default : Да
Forced : Нет
Аудио #2
Идентификатор : 3
Формат : AC-3
Формат/Информация : Audio Coding 3
Расширение режима : CM (complete main)
Параметр Endianness формата : Big
Идентификатор кодека : A_AC3
Продолжительность : 1 ч. 46 м.
Вид битрейта : Постоянный
Битрейт : 320 Кбит/сек
Каналы : 2 канала
Расположение каналов : Front: L R
Частота : 48,0 КГц
Битовая глубина : 16 бит
Метод сжатия : С потерями
Размер потока : 244 Мбайт (2%)
Заголовок : AC3 2.0 / 320 kbps / Dub (line)
Язык : Russian
Default : Нет
Forced : Нет
Аудио #3
Идентификатор : 4
Формат : DTS
Формат/Информация : Digital Theater Systems
Идентификатор кодека : A_DTS
Продолжительность : 1 ч. 46 м.
Вид битрейта : Постоянный
Битрейт : 1510 Кбит/сек
Каналы : 6 каналов
Расположение каналов : Front: L C R, Side: L R, LFE
Частота : 48,0 КГц
Битовая глубина : 24 бит
Метод сжатия : С потерями
Размер потока : 1,12 Гбайт (10%)
Заголовок : DTS 5.1 / 1536 kbps / Original
Язык : English
Default : Нет
Forced : Нет
Текст #1
Идентификатор : 5
Формат : UTF-8
Идентификатор кодека : S_TEXT/UTF8
Идентификатор кодека/Информация : UTF-8 Plain Text
Заголовок : Forced
Язык : Russian
Default : Да
Forced : Нет
Текст #2
Идентификатор : 6
Формат : UTF-8
Идентификатор кодека : S_TEXT/UTF8
Идентификатор кодека/Информация : UTF-8 Plain Text
Заголовок : Full
Язык : English
Default : Нет
Forced : Нет
Текст #3
Идентификатор : 7
Формат : UTF-8
Идентификатор кодека : S_TEXT/UTF8
Идентификатор кодека/Информация : UTF-8 Plain Text
Заголовок : SDH
Язык : English
Default : Нет
Forced : Нет
Меню
00:00:00.000 : en:00:00:00.000
00:04:24.639 : en:00:04:24.639
00:10:29.045 : en:00:10:29.045
00:14:47.053 : en:00:14:47.053
00:18:51.839 : en:00:18:51.839
00:24:22.127 : en:00:24:22.127
00:29:44.574 : en:00:29:44.574
00:35:48.605 : en:00:35:48.605
00:39:28.491 : en:00:39:28.491
00:45:41.572 : en:00:45:41.572
00:49:03.941 : en:00:49:03.941
00:55:17.731 : en:00:55:17.731
01:01:59.257 : en:01:01:59.257
01:08:42.327 : en:01:08:42.327
01:12:16.999 : en:01:12:16.999
01:18:14.982 : en:01:18:14.982
01:26:02.032 : en:01:26:02.032
01:30:46.191 : en:01:30:46.191
01:36:14.727 : en:01:36:14.727
01:40:13.799 : en:01:40:13.799
Скриншоты:

Время раздачи: 24/7 (до 10 скачавших)

[Цитировать]



Показать сообщения:    

Текущее время: 08-Дек 17:16

Часовой пояс: UTC + 3


Вы не можете начинать темы
Вы не можете отвечать на сообщения
Вы не можете редактировать свои сообщения
Вы не можете удалять свои сообщения
Вы не можете голосовать в опросах
Вы не можете прикреплять файлы к сообщениям
Вы не можете скачивать файлы

!ВНИМАНИЕ!
Сайт не предоставляет электронные версии произведений, а занимается лишь коллекционированием и каталогизацией ссылок, присылаемых и публикуемых на форуме нашими читателями. Если вы являетесь правообладателем какого-либо представленного материала и не желаете, чтобы ссылка на него находилась в нашем каталоге, свяжитесь с нами, и мы незамедлительно удалим ее. Файлы для обмена на трекере предоставлены пользователями сайта, и администрация не несет ответственности за их содержание. Просьба не заливать файлы, защищенные авторскими правами, а также файлы нелегального содержания!