[ Сегодня идет свободное скачивание без начисления Download ]


Статистика раздачи
Нет
 
   
 
Top  
 
 
-День труда / Labor Day (2013) HDRip- Год выпуска: 2013
Производство: США, Indian Paintbrush, Mr. Mudd, Right of Way Films
Жанр: Драма
Перевод: Дублированный (Лицензия)
Субтитры: Отсутствуют
Дата мировой премьеры: 30 августа 2013
Дата выхода DVD релиза: 18 августа 2014, «Новый Диск»
Режиссер: Джейсон Райтман
Продюсер: Хелен Эстабрук, Лайан Халфон, Джейсон Райтман
Актеры: Кейт Уинслет, Джош Бролин, Гэттлин Гриффит, Тоби Магуайр, Том Липински, Майка Бакли, Кларк Грегг, Джеймс Ван Дер Бик, Дж.К. Симмонс, Брук Смит
Описание фильма:
Одинокая мать укрывает беглого убийцу в своем доме, где живет вместе с сыном. Полиция обшаривает весь городок в поисках преступника, а мать-одиночка, тем временем, узнает о своем «госте» горькую правду и перестает понимать, что же ей делать.

Рейтинг MPAA: PG-13
Возраст: 12+
Продолжительность: 01:51:13
Качество видео: HDRip
Видеокодек: DivX
Битрейт видео: 1320 kb/s
Размер кадра: 720x304
Аудиокодек: AC3 5.1
Битрейт аудио: 448 kb/s

Награды

Золотой глобус, 2014 год
Номинации (1):
  • Лучшая женская роль (драма) (Кейт Уинслет)

MI

Общее
Полное имя                               : D:\Раздачи\Den.Truda.2013.HDRip.NNM-CLUB.avi
Формат                                   : AVI
Формат/Информация                        : Audio Video Interleave
Размер файла                             : 1,38 Гбайт
Продолжительность                        : 1 ч. 51 м.
Общий поток                              : 1777 Кбит/сек
Программа кодирования                    : VirtualDubMod 1.5.10.2 (build 2540/release)
Библиотека кодирования                   : VirtualDubMod build 2540/release
Видео
Идентификатор                            : 0
Формат                                   : MPEG-4 Visual
Профиль формата                          : [email protected]
Параметр BVOP формата                    : Нет
Параметр QPel формата                    : Нет
Параметр GMC формата                     : Без точки перехода
Параметр матрицы формата                 : Default (H.263)
Идентификатор кодека                     : DX50
Идентификатор кодека/Подсказка           : DivX 5
Продолжительность                        : 1 ч. 51 м.
Битрейт                                  : 1320 Кбит/сек
Ширина                                   : 720 пикселей
Высота                                   : 304 пикселя
Соотношение сторон                       : 2,35:1
Частота кадров                           : 23,976 кадра/сек
Цветовое пространство                    : YUV
Субдискретизация насыщенности            : 4:2:0
Битовая глубина                          : 8 бит
Тип развёртки                            : Прогрессивная
Метод сжатия                             : С потерями
Бит/(Пиксели*Кадры)                      : 0.252
Размер потока                            : 1,03 Гбайт (74%)
Библиотека кодирования                   : Lavc51.40.4
Аудио
Идентификатор                            : 1
Формат                                   : AC-3
Формат/Информация                        : Audio Coding 3
Расширение режима                        : CM (complete main)
Параметр Endianness формата              : Big
Идентификатор кодека                     : 2000
Продолжительность                        : 1 ч. 51 м.
Вид битрейта                             : Постоянный
Битрейт                                  : 448 Кбит/сек
Каналы                                   : 6 каналов
Расположение каналов                     : Front: L C R, Side: L R, LFE
Частота                                  : 48,0 КГц
Битовая глубина                          : 16 бит
Метод сжатия                             : С потерями
Размер потока                            : 356 Мбайт (25%)
Выравнивание                             : Разделение по промежуткам
Продолжительность промежутка             : 42  мс. (1,00 видеокадр)
Время предзагрузки промежутка            : 500  мс.
Скриншоты:

[Цитировать]



Показать сообщения:    

Текущее время: 06-Дек 11:18

Часовой пояс: UTC + 3


Вы не можете начинать темы
Вы не можете отвечать на сообщения
Вы не можете редактировать свои сообщения
Вы не можете удалять свои сообщения
Вы не можете голосовать в опросах
Вы не можете прикреплять файлы к сообщениям
Вы не можете скачивать файлы

!ВНИМАНИЕ!
Сайт не предоставляет электронные версии произведений, а занимается лишь коллекционированием и каталогизацией ссылок, присылаемых и публикуемых на форуме нашими читателями. Если вы являетесь правообладателем какого-либо представленного материала и не желаете, чтобы ссылка на него находилась в нашем каталоге, свяжитесь с нами, и мы незамедлительно удалим ее. Файлы для обмена на трекере предоставлены пользователями сайта, и администрация не несет ответственности за их содержание. Просьба не заливать файлы, защищенные авторскими правами, а также файлы нелегального содержания!