[ Сегодня идет свободное скачивание без начисления Download ]


Статистика раздачи
Нет
 
   
 
Top  
 
 

Доберман
Dobermann
-

  • Год производства: 1997

  • Страна: Франция

  • Жанр: Боевик, триллер, криминал

  • Продолжительность: 01:43:07

  • Перевод: Профессиональный (многоголосый закадровый)

  • Субтитры: Отсутствуют-
  • Режиссер: Ян Кунен-
  • В ролях: Венсан Кассель, Моника Беллуччи, Чеки Карио, Антуан Баслер, Доминик Беттенфельд, Паскаль Демолон, Марк Дюре, Ромен Дюрис, Франсуа Леванталь, Иван Мерат-Барбофф-
  • Описание: Герою фильма уже в день крестин один из друзей отца дарит Магнум-357. Мальчик вырос и стал супернаглым и дерзким грабителем по кличке Доберман. 357-й магнум заменили самые современные виды огнестрельного оружия, включая даже небольшие ракеты, которыми можно стрелять, навинчивая их на ствол пистолета. Вместе с ним всегда его глухая подруга, спокойно красящая ногти во время ограбления инкассаторов. Все члены банды - еще те типажи! Ловит же его жестокий полицейский рядом с которым Грязный Гарри - просто бойскаут. Он одержимо хочет поймать или убить Добермана и для достижения своей цели готов пойти на все и даже преступить закон.-
  • Качество видео: BDRip 720p

  • Исходник: BDRemux 1080p

  • Формат видео: mkv

  • Видео кодек: H264

  • Аудио кодек: AC3

  • Видео: 1280x544 (2.35:1), 24.000 fps, 3 604 Kbps, 0.216 bit/pixel

  • Аудио: 48 kHz, AC3 6 ch ~448 kbps avg-
  • Автор рипа: falco
-

Скриншоты

[/url]
[/url]
[/url]
[/url]

MediaInfo

Код: copyText_writeLink('this.parentNode.parentNode.nextSibling.nextSibling');
General
Unique ID                      : 235489738269339625138755980804183295130 (0xB129AC819F6083ADB4C96B3875E4049A)
Complete name                  : D:\Dobermann.1997.BDrip.720p.falco.mkv
Format                         : Matroska
Format version                 : Version 2
File size                      : 2.92 GiB
Duration                       : 1h 43mn
Overall bit rate               : 4 051 Kbps
Encoded date                   : UTC 2014-05-20 17:10:04
Writing application            : mkvmerge v6.1.0 ('Old Devil') built on Mar  4 2013 09:10:42
Writing library                : libebml v1.3.0 + libmatroska v1.4.0
Video
ID                             : 1
Format                         : AVC
Format/Info                    : Advanced Video Codec
Format profile                 : High@L4.1
Format settings, CABAC         : Yes
Format settings, ReFrames      : 10 frames
Codec ID                       : V_MPEG4/ISO/AVC
Duration                       : 1h 43mn
Bit rate                       : 3 604 Kbps
Width                          : 1 280 pixels
Height                         : 544 pixels
Display aspect ratio           : 2.35:1
Frame rate                     : 24.000 fps
Color space                    : YUV
Chroma subsampling             : 4:2:0
Bit depth                      : 8 bits
Scan type                      : Progressive
Bits/(Pixel*Frame)             : 0.216
Stream size                    : 2.54 GiB (87%)
Writing library                : x264 core 130 r2273 b3065e6
Encoding settings              : cabac=1 / ref=10 / deblock=1:-1:-2 / analyse=0x3:0x133 / me=umh / subme=11 / psy=1 / psy_rd=1.00:0.10 / mixed_ref=1 / me_range=32 / chroma_me=1 / trellis=2 / 8x8dct=1 / cqm=0 / deadzone=21,11 / fast_pskip=0 / chroma_qp_offset=-3 / threads=6 / lookahead_threads=1 / sliced_threads=0 / nr=0 / decimate=0 / interlaced=0 / bluray_compat=0 / constrained_intra=0 / bframes=6 / b_pyramid=2 / b_adapt=2 / b_bias=0 / direct=3 / weightb=1 / open_gop=0 / weightp=2 / keyint=240 / keyint_min=24 / scenecut=40 / intra_refresh=0 / rc_lookahead=60 / rc=2pass / mbtree=1 / bitrate=3604 / ratetol=1.0 / qcomp=0.70 / qpmin=0 / qpmax=69 / qpstep=4 / cplxblur=20.0 / qblur=0.5 / vbv_maxrate=50000 / vbv_bufsize=62500 / nal_hrd=none / ip_ratio=1.35 / aq=1:1.00
Default                        : Yes
Forced                         : No
Audio
ID                             : 2
Format                         : AC-3
Format/Info                    : Audio Coding 3
Mode extension                 : CM (complete main)
Format settings, Endianness    : Big
Codec ID                       : A_AC3
Duration                       : 1h 43mn
Bit rate mode                  : Constant
Bit rate                       : 448 Kbps
Channel(s)                     : 6 channels
Channel positions              : Front: L C R, Side: L R, LFE
Sampling rate                  : 48.0 KHz
Bit depth                      : 16 bits
Compression mode               : Lossy
Stream size                    : 330 MiB (11%)
Default                        : Yes
Forced                         : No

[Цитировать]



Показать сообщения:    

Текущее время: 07-Дек 15:34

Часовой пояс: UTC + 3


Вы не можете начинать темы
Вы не можете отвечать на сообщения
Вы не можете редактировать свои сообщения
Вы не можете удалять свои сообщения
Вы не можете голосовать в опросах
Вы не можете прикреплять файлы к сообщениям
Вы не можете скачивать файлы

!ВНИМАНИЕ!
Сайт не предоставляет электронные версии произведений, а занимается лишь коллекционированием и каталогизацией ссылок, присылаемых и публикуемых на форуме нашими читателями. Если вы являетесь правообладателем какого-либо представленного материала и не желаете, чтобы ссылка на него находилась в нашем каталоге, свяжитесь с нами, и мы незамедлительно удалим ее. Файлы для обмена на трекере предоставлены пользователями сайта, и администрация не несет ответственности за их содержание. Просьба не заливать файлы, защищенные авторскими правами, а также файлы нелегального содержания!