[ Сегодня идет свободное скачивание без начисления Download ]


Статистика раздачи
Скачал: [ 1 ]
 
   
 
Top  
 
 
-Лего. Фильм / The Lego Movie (2014) HDRip [H.264]«Кто был никем, тот всем ещё покажет»- Год выпуска: 2014
Производство: Австралия, США, Дания
Жанр: Фэнтези, Комедия, Приключения
Режиссер: Фил Лорд, Кристофер Миллер
Продюсер: Рой Ли, Дэн Лин, Эллисон Эббейт
Актеры: Крис Прэтт, Уилл Феррелл, Элизабет Бэнкс, Уилл Арнетт, Лиам Нисон, Морган Фриман, Элисон Бри, Дэвид Берроуз, Энтони Дэниелс, Чарли Дэй
Роли дублировали: Константин Карасик, Александр Ревва, Алексей Колган, Ирина Киреева, Гоша Куценко
Описание фильма:
Обычная лего-фигурка, ошибочно считающая себя фигуркой из элитного набора, соглашается присоединиться к походу против злого лего-диктатора, планирующего склеить вместе всю вселенную…
Перевод: Дублированный (iTunes)
Субтитры: Вшитые отключаемые
Язык субтитров: Русский, Английский (full, SDH)
Рейтинг MPAA: PG (рекомендуется присутствие родителей)
Возраст: 6+

Дата мировой премьеры: 1 февраля 2014
Дата российской премьеры: 27 февраля 2014, «Каро-Премьер» 3D
Дата выхода DVD релиза: 5 июня 2014, «CP Дистрибуция»
Дата выхода Blu-Ray релиза: 5 июня 2014, «CP Дистрибуция»
Продолжительность: 01:40:35
Качество видео: HDRip [H.264]
Видеокодек: MPEG-4 AVC/H.264
Битрейт видео: ~1008 kbps
Размер кадра: 720x300, 23.976 fps
Аудио #1: AC3, 48.0 KHz, 2 ch, 128 Kbps, CBR (Русский, Дубляж)
Аудио #2: AC3, 48.0 KHz, 2 ch, 128 Kbps, CBR (Английский)

Знаете ли вы, что:

• Фраза Бэтмена о том, что Эммет — это герой, которого Люси заслуживает, является отсылкой к финальной речи комиссара Гордона в фильме «Темный рыцарь» (2008).
• В процессе съемок использовались реальные наборы Lego, в частности личный набор режиссера Кристофера Миллера «Космическая деревня» (Space Village).
• Специальная накидка Лорда Бизнеса на самом деле выполнена в форме гигантского галстука.
• Это первый анимационный фильм для Моргана Фримана.
• Персонаж фильма Бенни (космонавт) — парень из 1980-х. Его фигурка выглядит так, как если бы этой игрушкой играло несколько поколений детей. Это заметно по потертому логотипу и сломанному шлему. Причем трещина на шлеме сделана именно в том месте, где, как правило, ломались реальные фигурки Lego.
• Лорд Бизнес — президент Октана, вымышленной бензоколонки, которая впервые появилась в 1992 году и с тех пор неоднократно появлялась в различных наборах Lego.
• Создатели намеренно пытались снять фильм в духе stop-motion, а также сделать так, чтобы спецэффекты не выглядели слишком очевидными. Все это для того, чтобы на экране все выглядело как в настоящем Lego.
• Посох мага Витрувиуса на самом деле является палочкой от леденца.
• Эммет ездит на модифицированном маленьком автомобиле 3177 из линейки Lego City`s 2010. Отличается он только изогнутым передним бампером и зеркалами. Эта модель в итоге была выпущена в рекламном наборе под названием «Машина Эммета» (Emmet`s Car) или «Летающий автомобиль» (Fly Car).
• Витрувием звали римского архитектора, жившего в I веке до н. э. А слово «архитектор» пошло от греческих слов «главный» (master) и «строитель» (builder).
• Цифры, которые можно заметить на детальках, — это официальные идентификаторы элементов Lego (Lego Element ID).
• В комедии Аристофана «Птицы» рассказывается о птичьем городе между небом и землей, где все устроено идеально. В фильме фигурирует аналогичный город, откуда родом Юникитти, где нет никаких правил и ограничений.
• Это уже второй раз для Уилла Форте, когда он озвучивал Авраама Линкольна. Первый раз был в сериале «Школа клонов» (2002-2003).
• Остальные факты на kinopoisk.ru

MediaInfo

Формат                                   : Matroska
Версия формата                           : Version 2
Размер файла                             : 928 Мбайт
Продолжительность                        : 1 ч. 40 м.
Общий поток                              : 1290 Кбит/сек
Название фильма                          : The Lego Movie (2014)
Дата кодирования                         : UTC 2014-05-29 05:37:46
Программа кодирования                    : mkvmerge v6.9.1 ('Blue Panther') 64bit built on Apr 18 2014 18:23:38
Библиотека кодирования                   : libebml v1.3.0 + libmatroska v1.4.1
Видео
Идентификатор                            : 1
Формат                                   : AVC
Формат/Информация                        : Advanced Video Codec
Профиль формата                          : [url=mailto:[email protected]][email protected][/url]
Параметр CABAC формата                   : Да
Параметр ReFrames формата                : 5 кадров
Идентификатор кодека                     : V_MPEG4/ISO/AVC
Продолжительность                        : 1 ч. 40 м.
Битрейт                                  : 1008 Кбит/сек
Ширина                                   : 720 пикселей
Высота                                   : 300 пикселей
Соотношение сторон                       : 2,40:1
Режим частоты кадров                     : Постоянный
Частота кадров                           : 23,976 кадра/сек
Цветовое пространство                    : YUV
Субдискретизация насыщенности            : 4:2:0
Битовая глубина                          : 8 бит
Тип развёртки                            : Прогрессивная
Бит/(Пиксели*Кадры)                      : 0.195
Размер потока                            : 725 Мбайт (78%)
Библиотека кодирования                   : x264 core 142 r2431 ac76440
Настройки программы                      : cabac=1 / ref=5 / deblock=1:2:1 / analyse=0x3:0x113 / me=umh / subme=8 / psy=1 / psy_rd=0.50:0.00 / mixed_ref=1 / me_range=16 / chroma_me=1 / trellis=1 / 8x8dct=1 / cqm=0 / deadzone=21,11 / fast_pskip=1 / chroma_qp_offset=-2 / threads=9 / lookahead_threads=1 / sliced_threads=0 / nr=0 / decimate=1 / interlaced=0 / bluray_compat=0 / constrained_intra=0 / bframes=3 / b_pyramid=2 / b_adapt=2 / b_bias=0 / direct=3 / weightb=1 / open_gop=0 / weightp=2 / keyint=240 / keyint_min=24 / scenecut=40 / intra_refresh=0 / rc_lookahead=50 / rc=crf / mbtree=1 / crf=19.0 / qcomp=0.60 / qpmin=0 / qpmax=69 / qpstep=4 / ip_ratio=1.40 / aq=1:0.70
Язык                                     : English
Default                                  : Да
Forced                                   : Нет
Коэффициенты матрицы                     : BT.709
Аудио #1
Идентификатор                            : 2
Формат                                   : AC-3
Формат/Информация                        : Audio Coding 3
Расширение режима                        : CM (complete main)
Параметр Endianness формата              : Big
Идентификатор кодека                     : A_AC3
Продолжительность                        : 1 ч. 40 м.
Вид битрейта                             : Постоянный
Битрейт                                  : 128 Кбит/сек
Каналы                                   : 2 канала
Расположение каналов                     : Front: L R
Частота                                  : 48,0 КГц
Битовая глубина                          : 16 бит
Метод сжатия                             : С потерями
Размер потока                            : 92,1 Мбайт (10%)
Язык                                     : Russian
Default                                  : Да
Forced                                   : Нет
Аудио #2
Идентификатор                            : 3
Формат                                   : AC-3
Формат/Информация                        : Audio Coding 3
Расширение режима                        : CM (complete main)
Параметр Endianness формата              : Big
Идентификатор кодека                     : A_AC3
Продолжительность                        : 1 ч. 40 м.
Вид битрейта                             : Постоянный
Битрейт                                  : 128 Кбит/сек
Каналы                                   : 2 канала
Расположение каналов                     : Front: L R
Частота                                  : 48,0 КГц
Битовая глубина                          : 16 бит
Метод сжатия                             : С потерями
Размер потока                            : 92,1 Мбайт (10%)
Язык                                     : English
Default                                  : Нет
Forced                                   : Нет
Текст #1
Идентификатор                            : 4
Формат                                   : UTF-8
Идентификатор кодека                     : S_TEXT/UTF8
Идентификатор кодека/Информация          : UTF-8 Plain Text
Язык                                     : Russian
Default                                  : Нет
Forced                                   : Нет
Текст #2
Идентификатор                            : 5
Формат                                   : UTF-8
Идентификатор кодека                     : S_TEXT/UTF8
Идентификатор кодека/Информация          : UTF-8 Plain Text
Заголовок                                : Full
Язык                                     : English
Default                                  : Нет
Forced                                   : Нет
Текст #3
Идентификатор                            : 6
Формат                                   : UTF-8
Идентификатор кодека                     : S_TEXT/UTF8
Идентификатор кодека/Информация          : UTF-8 Plain Text
Заголовок                                : SDH
Язык                                     : English
Default                                  : Нет
Forced                                   : Нет
Меню
00:00:00.000                             : en:00:00:00.000
00:09:44.042                             : en:00:09:44.042
00:18:18.389                             : en:00:18:18.389
00:29:50.747                             : en:00:29:50.747
00:38:48.034                             : en:00:38:48.034
00:48:45.047                             : en:00:48:45.047
00:57:49.424                             : en:00:57:49.424
01:06:05.253                             : en:01:06:05.253
01:16:24.205                             : en:01:16:24.205
01:25:56.151                             : en:01:25:56.151
01:32:57.322                             : en:01:32:57.322
Скриншоты:

Время раздачи: 24/7 (до 10 скачавших)

[Цитировать]



Показать сообщения:    

Текущее время: 04-Дек 11:11

Часовой пояс: UTC + 3


Вы не можете начинать темы
Вы не можете отвечать на сообщения
Вы не можете редактировать свои сообщения
Вы не можете удалять свои сообщения
Вы не можете голосовать в опросах
Вы не можете прикреплять файлы к сообщениям
Вы не можете скачивать файлы

!ВНИМАНИЕ!
Сайт не предоставляет электронные версии произведений, а занимается лишь коллекционированием и каталогизацией ссылок, присылаемых и публикуемых на форуме нашими читателями. Если вы являетесь правообладателем какого-либо представленного материала и не желаете, чтобы ссылка на него находилась в нашем каталоге, свяжитесь с нами, и мы незамедлительно удалим ее. Файлы для обмена на трекере предоставлены пользователями сайта, и администрация не несет ответственности за их содержание. Просьба не заливать файлы, защищенные авторскими правами, а также файлы нелегального содержания!