[ Сегодня идет свободное скачивание без начисления Download ]


Статистика раздачи
Нет
 
   
 
Top  
 
 
-Любовь и голуби (1984) BDRip [720p] [hand made 60fps]- Русское название: Любовь и голуби
Год выпуска: 1984
Жанр: Комедия, Мелодрама
Описание фильма:
Ликвидируя неисправность лебедки, Василий Кузякин получил травму и путевку на юг. Встретил роковую женщину Раису Захаровну и… вернулся Вася с курорта не к себе в деревню, а в дом Раисы Захаровны. Началась для него новая жизнь, в которой было много непонятного и интересного, но не было дома, где остались Надя, дети и голуби…
Режиссер: Владимир Меньшов
Актеры: Александр Михайлов, Нина Дорошина, Людмила Гурченко, Сергей Юрский, Наталья Тенякова, Янина Лисовская, Игорь Лях, Лада Сизоненко, Владимир Меньшов
Продолжительность: 01:44:43

Видеокодек: MPEG-4 AVC/H.264
Битрейт видео: ~15.0 Mbps
Размер кадра: 1280x720 59.94fps
Качество видео: BDRip
Аудиокодек: AC3 2.0
Битрейт аудио: 192 Kbps
Сэмпл: Ссылка Исходник взят отсюда: .
Видео отрейндерено в 60 (59.94=23.976*5/2) кадров в секунду (fps). laforsh писал(а): izomsk писал(а): Сделайте стоящее, выложите - оценим.
Согласен полностью.
izomsk, посмотрел по ссылке исходник - а это случайно не тот самый Блюрик, который был выпущен КП сразу с рассинхроном звука ? Если не ошибаюсь, у них сначала был выпущен первый диск с косяками, а позже переиздавали уже исправленный. Может здесь собака порылась ?
Добавлено спустя 2 минуты 48 секунд:
Точно. Почитал комменты - именно он и есть.
Добавлено спустя 2 минуты 48 секунд:
izomsk, там же, на первой странице в комментариях, есть ссылка на исправленное издание 2011 года.
Или здесь, в клубе взять можно:
Любовь и голуби (1984) [1080p] Blu-ray (Полная реставрация КП)
batonchik писал(а): Наши издатели в очередной раз удивили. Сильно. В оригинальном диске присутствовал лишний файл, более 20 Гб размером. Не смешно. Удалён. Далее ещё смешнее, все звуковые дорожки в оригинале были наложены с положительным смещением от 150 до 170 ms. Не смешно номер два - даже бабушка заметила. Исправлено.
Структура диска полностью сохранена. Воспроизведение проверено на Arcsoft Total Media Theatre версий 3 и 5, Scenarist QC и бытовом Networked Media Tank Popcorn Hour C-200. Решил: звук сдвинут -160мс. при кодировке синхронизировался с каждым кадром.
Субтитры не добавлял.
Для примера выложен сэмпл.

MediaInfo:

General
Unique ID : 178011810678732057587693833786823904287 (0x85EBD3E1CAFB2D31A42D7FA9DCB98C1F)
Complete name : D:\Video\60 fps\Любовь и голуби\Любовь и голуби (1984) BDRip [720p 60fps].mkv
Format : Matroska
Format version : Version 2
File size : 11.1 GiB
Duration : 1h 44mn
Overall bit rate : 15.2 Mbps
Encoded date : UTC 2012-10-21 13:52:40
Writing application : mkvmerge v5.8.0 ('No Sleep / Pillow') built on Sep 2 2012 15:37:04
Writing library : libebml v1.2.3 + libmatroska v1.3.0
Video
ID : 1
Format : AVC
Format/Info : Advanced Video Codec
Format profile : High@L4.1
Format settings, CABAC : Yes
Format settings, ReFrames : 4 frames
Muxing mode : Header stripping
Codec ID : V_MPEG4/ISO/AVC
Duration : 1h 44mn
Bit rate : 15.0 Mbps
Width : 1 280 pixels
Height : 720 pixels
Display aspect ratio : 16:9
Frame rate : 59.940 fps
Color space : YUV
Chroma subsampling : 4:2:0
Bit depth : 8 bits
Scan type : Progressive
Bits/(Pixel*Frame) : 0.272
Stream size : 10.8 GiB (97%)
Writing library : x264 core 120 r2120kMod 0c7dab9
Encoding settings : cabac=1 / ref=4 / deblock=1:0:0 / analyse=0x3:0x13 / me=umh / subme=7 / psy=1 / fade_compensate=0.00 / psy_rd=1.00:0.00 / mixed_ref=1 / me_range=16 / chroma_me=1 / trellis=1 / 8x8dct=1 / cqm=0 / deadzone=21,11 / fast_pskip=1 / chroma_qp_offset=-2 / threads=6 / sliced_threads=1 / slices=6 / nr=0 / decimate=1 / interlaced=0 / bluray_compat=0 / constrained_intra=0 / bframes=0 / weightp=2 / keyint=300 / keyint_min=30 / scenecut=40 / intra_refresh=0 / rc=2pass / mbtree=0 / bitrate=15000 / ratetol=1.0 / qcomp=0.60 / qpmin=10 / qpmax=51 / qpstep=4 / cplxblur=20.0 / qblur=0.5 / ip_ratio=1.40 / aq=1:1.00
Default : Yes
Forced : No
Audio
ID : 2
Format : AC-3
Format/Info : Audio Coding 3
Mode extension : CM (complete main)
Muxing mode : Header stripping
Codec ID : A_AC3
Duration : 1h 44mn
Bit rate mode : Constant
Bit rate : 192 Kbps
Channel(s) : 2 channels
Channel positions : Front: L R
Sampling rate : 48.0 KHz
Bit depth : 16 bits
Compression mode : Lossy
Stream size : 144 MiB (1%)
Default : Yes
Forced : No
Скриншоты:

Время раздачи: с 07:00 до 20:00 МСК до 10 сидов

[Цитировать]



Показать сообщения:    

Текущее время: 09-Дек 14:37

Часовой пояс: UTC + 3


Вы не можете начинать темы
Вы не можете отвечать на сообщения
Вы не можете редактировать свои сообщения
Вы не можете удалять свои сообщения
Вы не можете голосовать в опросах
Вы не можете прикреплять файлы к сообщениям
Вы не можете скачивать файлы

!ВНИМАНИЕ!
Сайт не предоставляет электронные версии произведений, а занимается лишь коллекционированием и каталогизацией ссылок, присылаемых и публикуемых на форуме нашими читателями. Если вы являетесь правообладателем какого-либо представленного материала и не желаете, чтобы ссылка на него находилась в нашем каталоге, свяжитесь с нами, и мы незамедлительно удалим ее. Файлы для обмена на трекере предоставлены пользователями сайта, и администрация не несет ответственности за их содержание. Просьба не заливать файлы, защищенные авторскими правами, а также файлы нелегального содержания!