[ Сегодня идет свободное скачивание без начисления Download ]


Статистика раздачи
Нет
 
   
 
Top  
 
 
-Мистериум. Начало / Женщина в клетке / Kvinden i buret (2013) DVD5«Intet er glemt for altid»- Год выпуска: 2013
Производство: Дания, Германия, Швеция
Жанр: Триллер, криминал, детектив
Режиссер: Миккель Нёргор
Продюсер: Петер Ольбек Йенсен, Луиза Вест, Йонас Баггер
Актеры: Николай Ли Каас, Фарес Фарес, Соня Рихтер, Клаус Маак Бансен, Расмус Ботофт, Эрнст Бойе, Кеннет Кармон
Описание фильма:
Экранизация приключений детективов Карла Мерке и Асада, работающих в Департаменте Q, занимающемся «глухарями». Взявшись за дело пятилетней давности об исчезновении женщины по имени Мерет они внезапно выходят на след маньяка-психопата, но преследуя его по всей стране, все равно на шаг отстают.
Перевод: Многоголосый закадровый, профессиональный (Позитив, по заказу Русского Репортажа) [Лицензия]
Субтитры: Отсутствуют
Возраст: 16+

Дата мировой премьеры: 10 августа 2013
Дата российской премьеры: 20 февраля 2014, «Русский Репортаж»
Продолжительность: 01:36:31
Качество видео: DVD5
Видеокодек: MPEG-2
Битрейт видео: ~3876 Kbps
Размер кадра: 720x576@1024x576 (PAL 16:9) 25.000 fps
Аудио: AC3, 48 KHz, 6 ch, 448 Kbps, CBR (Русский, Многоголосый закадровый)
Дополнительные материалы: Отсутствуют

DVDInfo:

Title: Kvinden.i.buret.2013.DVD5.NNM-CLUB
Size: 3.44 Gb ( 3 608 774,00 KBytes ) - DVD-5
Enabled regions: 1, 2, 3, 4, 5, 6, 7, 8
VTS_01 :
  Play Length: 01:36:31+{00:00:00}+{00:00:00}+{00:00:00}
  Video: PAL 16:9 (720x576) VBR, Auto Letterboxed
  Audio:
      Not specified (Dolby AC3, 6 ch)
VTS_02 :
  Play Length: 00:00:18+{00:00:00}+{00:00:00}+{00:00:00}
  Video: PAL 16:9 (720x576) VBR, Auto Letterboxed
  Audio:
      Not specified (Dolby AC3, 6 ch)
VTS_03 :
  Play Length: 00:00:09+{00:00:00}+{00:00:00}+{00:00:00}
  Video: PAL 16:9 (720x576) VBR, Auto Letterboxed
  Audio:
      Not specified (Dolby AC3, 6 ch)
VTS_04 :
  Play Length: 00:02:10+{00:00:00}+{00:00:00}+{00:00:00}
  Video: PAL 16:9 (720x576) VBR, Auto Letterboxed
  Audio:
      Not specified (Dolby AC3, 6 ch)
VTS_05 :
  Play Length: 00:03:05+{00:00:00}+{00:00:00}+{00:00:00}
  Video: PAL 16:9 (720x576) VBR, Auto Letterboxed
  Audio:
      Not specified (Dolby AC3, 6 ch)
VTS_06 :
  Play Length: 00:03:15+{00:00:00}+{00:00:00}+{00:00:00}
  Video: PAL 16:9 (720x576) VBR, Auto Letterboxed
  Audio:
      Not specified (Dolby AC3, 6 ch)
VTS_07 :
  Play Length: 00:01:23+{00:00:00}+{00:00:00}+{00:00:00}
  Video: PAL 16:9 (720x576) VBR, Auto Letterboxed
  Audio:
      Not specified (Dolby AC3, 6 ch)

MediaInfo:

Полное имя                               : D:\Kvinden.i.buret.2013.DVD5.NNM-CLUB\VIDEO_TS\VTS_01_1.VOB
Формат                                   : MPEG-PS
Размер файла                             : 1024 Мбайт
Продолжительность                        : 32 м.
Режим общего битрейта                    : Переменный
Общий поток                              : 4412 Кбит/сек
Библиотека кодирования                   : Created by NeMpeg2Enc (2014-04-29T01-12-30)
Видео
Идентификатор                            : 224 (0xE0)
Формат                                   : MPEG Video
Версия формата                           : Version 2
Профиль формата                          : Main@Main
Параметр BVOP формата                    : Да
Параметр матрицы формата                 : Выборочная
Параметр GOP формата                     : M=3, N=15
Продолжительность                        : 32 м.
Вид битрейта                             : Переменный
Битрейт                                  : 3876 Кбит/сек
Максимальный битрейт                     : 9330 Кбит/сек
Ширина                                   : 720 пикселей
Высота                                   : 576 пикселей
Соотношение сторон                       : 16:9
Частота кадров                           : 25,000 кадров/сек
Стандарт вещания                         : PAL
Цветовое пространство                    : YUV
Субдискретизация насыщенности            : 4:2:0
Битовая глубина                          : 8 бит
Тип развёртки                            : Прогрессивная
Порядок развёртки                        : Нижнее поле первое
Метод сжатия                             : С потерями
Бит/(Пиксели*Кадры)                      : 0.374
Временной код первого кадра              : 00:00:00:00
Оригинал временного кода                 : Group of pictures header
Размер потока                            : 900 Мбайт (88%)
Библиотека кодирования                   : Created by NeMpeg2Enc (2014-04-29T01-12-30)
Аудио
Идентификатор                            : 189 (0xBD)-128 (0x80)
Формат                                   : AC-3
Формат/Информация                        : Audio Coding 3
Расширение режима                        : CM (complete main)
Параметр Endianness формата              : Big
Режим смешивания                         : DVD-Video
Продолжительность                        : 32 м.
Вид битрейта                             : Постоянный
Битрейт                                  : 448 Кбит/сек
Каналы                                   : 6 каналов
Расположение каналов                     : Front: L C R, Side: L R, LFE
Частота                                  : 48,0 КГц
Битовая глубина                          : 16 бит
Метод сжатия                             : С потерями
Размер потока                            : 104 Мбайт (10%)

Скриншоты меню DVD:

Скриншоты:

[Цитировать]

Топик был перенесен из форума Новинки кинопроката в форум Триллер
Henkok



Показать сообщения:    

Текущее время: 25-Мар 17:37

Часовой пояс: UTC + 6


Вы не можете начинать темы
Вы не можете отвечать на сообщения
Вы не можете редактировать свои сообщения
Вы не можете удалять свои сообщения
Вы не можете голосовать в опросах
Вы не можете прикреплять файлы к сообщениям
Вы не можете скачивать файлы

!ВНИМАНИЕ!
Сайт не предоставляет электронные версии произведений, а занимается лишь коллекционированием и каталогизацией ссылок, присылаемых и публикуемых на форуме нашими читателями. Если вы являетесь правообладателем какого-либо представленного материала и не желаете, чтобы ссылка на него находилась в нашем каталоге, свяжитесь с нами, и мы незамедлительно удалим ее. Файлы для обмена на трекере предоставлены пользователями сайта, и администрация не несет ответственности за их содержание. Просьба не заливать файлы, защищенные авторскими правами, а также файлы нелегального содержания!