[ Сегодня идет свободное скачивание без начисления Download ]


Статистика раздачи
Нет
 
   
 
Top  
 
 
-Охотники за головами (2014) SATRip [Серии 1-6 из 8] [обновляемая]- Год выпуска: 2014
Жанр: Детектив, Мелодрама, Драма

Дата российской премьеры:
27.05.2014
Режиссер: Иван Шурховецкий
Актеры: Елизавета Боярская, Филипп Янковский, Артур Ваха, Денис Синявский, Борис Хвошнянский, Константин Шелестун, Алексей Барабаш, Виталий Коваленко, Иван Мудров, Андрей Матюков
Описание фильма:
Тимур и Рита – «охотники за головами». Рита ищет уникальных специалистов, Тимур – опасных преступников. Однажды их пути пересекутся: они одновременно выйдут на след гениального российского химика. Его изобретение – лекарство от рака, наркомафия планирует использовать как наркотик. Героям предстоит сделать непростой моральный выбор...
Продолжительность: ~ 00:45:00 / серия
Качество видео: SATRip
Сэмпл: Скачать
Видеокодек: Xvid
Битрейт видео: ~1440 Кбит/с
Размер кадра: 720x384
Аудиокодек: MP3
Битрейт аудио: 192 Кбит/с, 2 ch

А знаете ли вы, что ...

... для Лизы Боярской участие в данном проекте - первый опыт работы в жанре «экшн»: «Я привыкла к длинным игровым сценам, зачастую с вагоном текста. А здесь ни минуты покоя, высокий темпоритм и бесконечная смена картинки... И это так здорово! Никогда не думала, что это так интересно: снимать трюки. Меня тут бесконечно пытают, привязывают, иголки под ногти засовывают. Будут также перестрелки, гонки на автомобилях».

MediaInfo

General
Complete name : \Oxotniki.za.golovami.2014\Охoтники за головaми.(01.seriya).2014.XviD.SATRip.avi
Format : AVI
Format/Info : Audio Video Interleave
File size : 539 MiB
Duration : 45mn 46s
Overall bit rate : 1 646 Kbps
Writing application : VirtualDubModRus 1.5.10.2 (build 2542/release)
Writing library : VirtualDubMod build 2542/release
Video
ID : 0
Format : MPEG-4 Visual
Format profile : Advanced [email protected]
Format settings, BVOP : 1
Format settings, QPel : No
Format settings, GMC : No warppoints
Format settings, Matrix : Default (MPEG)
Codec ID : XVID
Codec ID/Hint : XviD
Duration : 45mn 46s
Bit rate : 1 444 Kbps
Width : 720 pixels
Height : 384 pixels
Display aspect ratio : 1.875
Frame rate : 25.000 fps
Color space : YUV
Chroma subsampling : 4:2:0
Bit depth : 8 bits
Scan type : Progressive
Compression mode : Lossy
Bits/(Pixel*Frame) : 0.209
Stream size : 473 MiB (88%)
Writing library : XviD 1.2.1 (UTC 2008-12-04)
Audio
ID : 1
Format : MPEG Audio
Format version : Version 1
Format profile : Layer 3
Mode : Joint stereo
Mode extension : MS Stereo
Codec ID : 55
Codec ID/Hint : MP3
Duration : 45mn 46s
Bit rate mode : Constant
Bit rate : 192 Kbps
Channel(s) : 2 channels
Sampling rate : 48.0 KHz
Compression mode : Lossy
Stream size : 62.9 MiB (12%)
Alignment : Aligned on interleaves
Interleave, duration : 40 ms (1.00 video frame)
Interleave, preload duration : 504 ms
Writing library : LAME3.99r
Encoding settings : -m j -V 4 -q 2 -lowpass 18.6 -b 192

Внимание! Раздача ведётся путём добавления новых серий

Внимание! Раздача ведётся путём добавления новых серий; при каждом добавлении создаётся новый торрент.
Чтобы начать докачку новой серии, пользователям необходимо сделать следующее:
1. Остановить скачивание;
2. Удалить старый торрент у себя из клиента (старые серии удалять не надо);
3. Скачать новый торрент и запустить его у себя в клиенте вместо старого, при этом указать клиенту путь в старую папку куда и должно происходить скачивание новых серий. Ваш клиент при этом должен произвести хеширование (проверку) старой папки и будет докачивать только те серии, которых у вас ещё нет. Старые серии при этом не удаляются, а продолжают раздаваться! Eсли вы уже удалили старые серии, то предотвратить повторную закачку старых серий можно, отжав галочку в соответствующих местах при запуске нового торрента.
Скриншоты: Все релизы "Охотники за головами" на NNM-CLUB
Время раздачи: Пн-Пт с 18:00 до 24:00, Сб-Вс с 09:00 до 24:00

[Цитировать]



Показать сообщения:    

Текущее время: 06-Дек 13:17

Часовой пояс: UTC + 3


Вы не можете начинать темы
Вы не можете отвечать на сообщения
Вы не можете редактировать свои сообщения
Вы не можете удалять свои сообщения
Вы не можете голосовать в опросах
Вы не можете прикреплять файлы к сообщениям
Вы не можете скачивать файлы

!ВНИМАНИЕ!
Сайт не предоставляет электронные версии произведений, а занимается лишь коллекционированием и каталогизацией ссылок, присылаемых и публикуемых на форуме нашими читателями. Если вы являетесь правообладателем какого-либо представленного материала и не желаете, чтобы ссылка на него находилась в нашем каталоге, свяжитесь с нами, и мы незамедлительно удалим ее. Файлы для обмена на трекере предоставлены пользователями сайта, и администрация не несет ответственности за их содержание. Просьба не заливать файлы, защищенные авторскими правами, а также файлы нелегального содержания!