[ Сегодня идет свободное скачивание без начисления Download ]


Статистика раздачи
Нет
 
   
 
Top  
 
 
-1001 (2014) SATRip [1-4 серии из 4]- Год выпуска: 2014
Жанр: Мелодрама, Фантастика

Дата российской премьеры: 2 мая 2014
Режиссер: Александр Котт
Актеры: Саёра Сафари, Алексей Франдетти, Александр Голубков, Ёла Санько, Рамиль Сабитов, Нодар Сирадзе
Описание фильма:
Действие фильма разворачивается в двух условных "мирах", разделенных символическими воротами. Мир первый – современность, 21 век, где жизнь бьет ключом. Мир второй – некое "волшебное" пространство сказки со всеми присущими ей атрибутами – роскошными дворцами, удивительными одеждами, гаремами, интригами и волшебниками.
Продолжительность: 4 x ~ 00:47:00
Качество видео: SATRip
Видеокодек: DivX 5
Битрейт видео: ~1800 kb/s
Размер кадра: 720x448
Аудиокодек: MP3
Битрейт аудио: 2 ch, 128 kb/s

MediaInfo:

Общее
Полное имя : E:\Фильмы\1001.SATRip\Сетия_001.avi
Формат : AVI
Формат/Информация : Audio Video Interleave
Размер файла : 667 Мбайт
Продолжительность : 48 м.
Общий поток : 1938 Кбит/сек
Библиотека кодирования : VirtualDub build 35491/release
Видео
Идентификатор : 0
Формат : MPEG-4 Visual
Параметр BVOP формата : 1
Параметр QPel формата : Нет
Параметр GMC формата : Без точки перехода
Параметр матрицы формата : Default (H.263)
Режим смешивания : Сжатый битовый поток
Идентификатор кодека : DX50
Идентификатор кодека/Подсказка : DivX 5
Продолжительность : 48 м.
Битрейт : 1800 Кбит/сек
Ширина : 720 пикселей
Высота : 448 пикселей
Соотношение сторон : 16:10
Частота кадров : 25,000 кадров/сек
Цветовое пространство : YUV
Субдискретизация насыщенности : 4:2:0
Битовая глубина : 8 бит
Тип развёртки : Прогрессивная
Метод сжатия : С потерями
Бит/(Пиксели*Кадры) : 0.223
Размер потока : 619 Мбайт (93%)
Библиотека кодирования : DivX 6.8.5 (UTC 2009-08-20)
Аудио
Идентификатор : 1
Формат : MPEG Audio
Версия формата : Version 1
Профиль формата : Layer 3
Режим : Joint stereo
Расширение режима : MS Stereo
Идентификатор кодека : 55
Идентификатор кодека/Подсказка : MP3
Продолжительность : 48 м.
Вид битрейта : Постоянный
Битрейт : 128 Кбит/сек
Каналы : 2 канала
Частота : 48,0 КГц
Метод сжатия : С потерями
Размер потока : 44,0 Мбайт (7%)
Выравнивание : Разделение по промежуткам
Продолжительность промежутка : 40 мс. (1,00 видеокадр)
Время предзагрузки промежутка : 500 мс.
Скриншоты:

[Цитировать]



Показать сообщения:    

Текущее время: 04-Дек 23:24

Часовой пояс: UTC + 3


Вы не можете начинать темы
Вы не можете отвечать на сообщения
Вы не можете редактировать свои сообщения
Вы не можете удалять свои сообщения
Вы не можете голосовать в опросах
Вы не можете прикреплять файлы к сообщениям
Вы не можете скачивать файлы

!ВНИМАНИЕ!
Сайт не предоставляет электронные версии произведений, а занимается лишь коллекционированием и каталогизацией ссылок, присылаемых и публикуемых на форуме нашими читателями. Если вы являетесь правообладателем какого-либо представленного материала и не желаете, чтобы ссылка на него находилась в нашем каталоге, свяжитесь с нами, и мы незамедлительно удалим ее. Файлы для обмена на трекере предоставлены пользователями сайта, и администрация не несет ответственности за их содержание. Просьба не заливать файлы, защищенные авторскими правами, а также файлы нелегального содержания!