[ Сегодня идет свободное скачивание без начисления Download ]


Статистика раздачи
Нет
 
   
 
Top  
 
 
-Нежное чудовище (2004) DVDRip [1-8 серии из 8]- Год выпуска: 2004
Жанр: Детектив

Режиссер: Александр Сабба
Актеры: Ирина Лачина, Яна Львова, Георгий Тараторкин, Георгий Мартиросян, Евгений Коряковский, Сергей Греков, Александр Резалин, Алиса Гребенщикова, Елена Доронина (III), Владимир Тягичев, Людмила Дребнёва
Описание фильма:
В известном московском драматическом театре одно за другим происходят загадочные убийства. Главный режиссер труппы, Алена Позднякова, становится единственным человеком, который может определить мотивы, объяснить цели и выявить взаимосвязь этих преступлений. В водоворот событий оказывается вовлечено все театральное окружение Алены, а она сама едва избегает жестокой расправы. Теперь девушка вынуждена быть главной участницей этого трагического «театрального детектива»…
Продолжительность: 8 х ~ 00:44:13
Качество видео: DVDRip
Видеокодек: DivX 5
Битрейт видео: ~1131 kb/s
Размер кадра: 640x464
Аудиокодек: MP3
Битрейт аудио: 2 ch, 128 kb/s

Медаинфо

Общее
Полное имя : E:\Фильмы\Нежное_чудовище .(8.serij.iz.8).2004.DVDRip.kuksenok\Нежное_чудовище_ 1.avi
Формат : AVI
Формат/Информация : Audio Video Interleave
Размер файла : 401 Мбайт
Продолжительность : 44 м.
Общий поток : 1269 Кбит/сек
Программа кодирования : FairUse Wizard - http://fairusewizard.com
Библиотека кодирования : The best and REALLY easy backup tool
Видео
Идентификатор : 0
Формат : MPEG-4 Visual
Параметр BVOP формата : 1
Параметр QPel формата : Нет
Параметр GMC формата : Без точки перехода
Параметр матрицы формата : Default (H.263)
Режим смешивания : Сжатый битовый поток
Идентификатор кодека : DX50
Идентификатор кодека/Подсказка : DivX 5
Продолжительность : 44 м.
Битрейт : 1131 Кбит/сек
Ширина : 640 пикселей
Высота : 464 пикселя
Соотношение сторон : 1,379
Частота кадров : 25,000 кадров/сек
Цветовое пространство : YUV
Субдискретизация насыщенности : 4:2:0
Битовая глубина : 8 бит
Тип развёртки : Прогрессивная
Метод сжатия : С потерями
Бит/(Пиксели*Кадры) : 0.152
Размер потока : 357 Мбайт (89%)
Библиотека кодирования : DivX 6.8.5 (UTC 2009-08-20)
Аудио
Идентификатор : 1
Формат : MPEG Audio
Версия формата : Version 1
Профиль формата : Layer 3
Режим : Joint stereo
Расширение режима : MS Stereo
Идентификатор кодека : 55
Идентификатор кодека/Подсказка : MP3
Продолжительность : 44 м.
Вид битрейта : Постоянный
Битрейт : 128 Кбит/сек
Каналы : 2 канала
Частота : 48,0 КГц
Метод сжатия : С потерями
Размер потока : 40,4 Мбайт (10%)
Выравнивание : Соединение по промежуткам
Продолжительность промежутка : 40 мс. (1,00 видеокадр)
Время предзагрузки промежутка : 504 мс.
Библиотека кодирования : LAME3.97b
Настройки программы : -m j -V 4 -q 2 -lowpass 17 -b 128
Скриншоты:

[Цитировать]



Показать сообщения:    

Текущее время: 10-Дек 21:35

Часовой пояс: UTC + 3


Вы не можете начинать темы
Вы не можете отвечать на сообщения
Вы не можете редактировать свои сообщения
Вы не можете удалять свои сообщения
Вы не можете голосовать в опросах
Вы не можете прикреплять файлы к сообщениям
Вы не можете скачивать файлы

!ВНИМАНИЕ!
Сайт не предоставляет электронные версии произведений, а занимается лишь коллекционированием и каталогизацией ссылок, присылаемых и публикуемых на форуме нашими читателями. Если вы являетесь правообладателем какого-либо представленного материала и не желаете, чтобы ссылка на него находилась в нашем каталоге, свяжитесь с нами, и мы незамедлительно удалим ее. Файлы для обмена на трекере предоставлены пользователями сайта, и администрация не несет ответственности за их содержание. Просьба не заливать файлы, защищенные авторскими правами, а также файлы нелегального содержания!