[ Сегодня идет свободное скачивание без начисления Download ]


Статистика раздачи
Нет
 
   
 
Top  
 
 
-Столетний старик, который вылез в окно и исчез / Hundraaringen som klev ut genom fonstret och forsvann / The Centenarian Who Climbed Out the Window and Vanished (2013) HDRip- Год выпуска: 2013
Производство: Швеция / Buena Vista International (Sweden)
Жанр: Драма, Комедия, Приключения
Описание фильма:
В день своего столетнего юбилея, главный герой этой приключенческой комедии покидает через окно дом престарелых, где он провёл уже немало лет. Он не хочет влачить здесь бесцельное существование, ведь вся его жизнь была полна увлекательных приключений. Судьба сводила его со множеством людей оказавших сильно влияние на судьбы целых народов в 20-м веке – Труменом, Сталиным, Франко. Да и сам он, надо сказать, очень сильно повлиял на ход истории, хотя, конечно, и не осознал этого.
Режиссер: Феликс Хернгрен
Продюсер: Мальте Форселл, Феликс Хернгрен, Хенрик Янссон
Актеры: Роберт Густафссон, Ивар Викландер, Давид Виберг, Миа Скярингер, Йенс Хультен, Бианка Крузейро, Алан Форд, Свен Лённ, Дэвид Шеклтон, Георг Николофф
Продолжительность: 01:54:17
Качество видео: HDRip
Перевод: Любительский (одноголосый) [С.Бросалин]
Дата мировой премьеры: 25 декабря 2013

Видеокодек: Xvid
Битрейт видео: ~1914 Кбит/с
Размер кадра: 720x304
Аудио #1: Russian: AC3, 256 kb/s (2 ch)
Аудио #2: Swedish: AC3, 384 kb/s (6 ch)
Сэмпл: Ссылка

MediaInfo:

Общее
Полное имя : C:\Торрент\Stoletnij.starik.kotoryj.vylez.v.okno.i.ischez.2013.L1.2100.avi
Формат : AVI
Формат/Информация : Audio Video Interleave
Профиль формата : OpenDML
Размер файла : 2,05 Гбайт
Продолжительность : 1 ч. 54 м.
Общий поток : 2572 Кбит/сек
Программа кодирования : VirtualDubMod 1.5.10.3 | www.virtualdub-fr.org || (build 2550/release)
Библиотека кодирования : VirtualDubMod build 2550/release
Видео
Идентификатор : 0
Формат : MPEG-4 Visual
Профиль формата : Advanced Simple@L5
Параметр BVOP формата : 1
Параметр QPel формата : Нет
Параметр GMC формата : Без точки перехода
Параметр матрицы формата : Default (MPEG)
Режим смешивания : Сжатый битовый поток
Идентификатор кодека : XVID
Идентификатор кодека/Подсказка : XviD
Продолжительность : 1 ч. 54 м.
Битрейт : 1914 Кбит/сек
Ширина : 720 пикселей
Высота : 304 пикселя
Соотношение сторон : 2,35:1
Частота кадров : 24,000 кадра/сек
Цветовое пространство : YUV
Субдискретизация насыщенности : 4:2:0
Битовая глубина : 8 бит
Тип развёртки : Прогрессивная
Метод сжатия : С потерями
Бит/(Пиксели*Кадры) : 0.364
Размер потока : 1,53 Гбайт (74%)
Библиотека кодирования : XviD 1.2.1 (UTC 2008-12-04)
Аудио #1
Идентификатор : 1
Формат : AC-3
Формат/Информация : Audio Coding 3
Расширение режима : CM (complete main)
Параметр Endianness формата : Big
Идентификатор кодека : 2000
Продолжительность : 1 ч. 54 м.
Вид битрейта : Постоянный
Битрейт : 256 Кбит/сек
Каналы : 2 канала
Расположение каналов : Front: L R
Частота : 48,0 КГц
Битовая глубина : 16 бит
Метод сжатия : С потерями
Размер потока : 209 Мбайт (10%)
Выравнивание : Разделение по промежуткам
Продолжительность промежутка : 42 мс. (1,00 видеокадр)
Время предзагрузки промежутка : 500 мс.
Аудио #2
Идентификатор : 2
Формат : AC-3
Формат/Информация : Audio Coding 3
Расширение режима : CM (complete main)
Параметр Endianness формата : Big
Идентификатор кодека : 2000
Продолжительность : 1 ч. 54 м.
Вид битрейта : Постоянный
Битрейт : 384 Кбит/сек
Каналы : 6 каналов
Расположение каналов : Front: L C R, Side: L R, LFE
Частота : 48,0 КГц
Битовая глубина : 16 бит
Метод сжатия : С потерями
Размер потока : 314 Мбайт (15%)
Выравнивание : Разделение по промежуткам
Продолжительность промежутка : 42 мс. (1,00 видеокадр)
Время предзагрузки промежутка : 500 мс.
Скриншоты:

Время раздачи: 24/7

[Цитировать]



Показать сообщения:    

Текущее время: 08-Дек 03:13

Часовой пояс: UTC + 3


Вы не можете начинать темы
Вы не можете отвечать на сообщения
Вы не можете редактировать свои сообщения
Вы не можете удалять свои сообщения
Вы не можете голосовать в опросах
Вы не можете прикреплять файлы к сообщениям
Вы не можете скачивать файлы

!ВНИМАНИЕ!
Сайт не предоставляет электронные версии произведений, а занимается лишь коллекционированием и каталогизацией ссылок, присылаемых и публикуемых на форуме нашими читателями. Если вы являетесь правообладателем какого-либо представленного материала и не желаете, чтобы ссылка на него находилась в нашем каталоге, свяжитесь с нами, и мы незамедлительно удалим ее. Файлы для обмена на трекере предоставлены пользователями сайта, и администрация не несет ответственности за их содержание. Просьба не заливать файлы, защищенные авторскими правами, а также файлы нелегального содержания!