[ Сегодня идет свободное скачивание без начисления Download ]


Статистика раздачи
Нет
 
   
 
Top  
 
 
Микки Маус : Mickey Mouse Год выпуска: 2013
Страна: США
Жанр: короткометражный мультсериал
Продолжительность: ~00:03:49 (~00:03:34)* х 18
Перевод: Профессиональный (Дублированный) - Невафильм
русские субтитры: нет-Режиссёр: Пол Рудиш : Paul Rudish, Аарон Спринджер : Aaron Springer, Клэй Морроу : Clay Morrow, Дэвид Вассон : David Wasson, Крис Савино: Chris Savino, Уильям Рейсс: William Reiss-Роли озвучивали: Крис Диамантополос, Билл Фармер, Расси Тейлор, Тони Ансельмо, Аарон Спринджер
Пол Рудиш, Тресс МакНилл, Фред Татаскьор, Дэвид Вассон, Ди Брэдли Бейкер
Роли дублировали: Максим Сергеев, Сергей Бызгу, Сауле Искакова, Константин Петров, Снежина Копрова-Описание: Новый Микки Маус отправляется в кругосветное путешествие со своими друзьями!- [url=http://multi-
Благодарность:
- Звук был взят с этой раздачи -> DVB , спасибо mrogg;
- За представленный исходник WEB-DL 720p, спасибо xfiles;
- За записи с канала Disney, спасибо Lexa1988-L1;
- Работа со звуком -Azureus-;-Доп. информация*: (~00:03:34) в серия No Service, Yodelberg и Croissant de Triomphe отсутствуют финальные титры.-Все раздачи данного мультсериала на трекере-Качество: WEB-DL 720p
Формат: MKV
Видео кодек: AVC
Аудио кодек: AC3
Видео: 1280x720, 23,976 fps, ~3 234 kbps avg, 0.146 bit/pixel
Аудио #1: [RUS] 48 kHz, AC3 Dolby Digital, 2/0 (L,R) ch, ~192 kbps kbps avg - DUB
Аудио #2: [ENG] 48 kHz, AC3 Dolby Digital, 3/2 (L,C,R,l,r) + LFE ch, ~384 kbps
субтитры: английские (SDH)
Список серий
1. Отказ : No Service
2. Йодльберг : Yodelberg
3. Мрачный друг : Ghoul Friend
4. Триумфальный круассан : Croissant de Triomphe
5. Хот-дог : New York Weenie
6. Восточный экспресс : Tokyo Go
7. Жара : Stayin' Cool
8. Воды!: Gasp!
9. Панда-мониум : Panda-monium
10. Непослушные уши : Bad Ear Day
11. Серенада : 'O Sole Minnie
12. Лучший пес : Dog Show
13. Лунатик : Sleepwalkin'
14. Третий лишний : Third Wheel
15. Очаровательная пара : The Adorable Couple
16. Картошечка : Potatoland
17. Чемпион : Tapped Out
18. ЛАстабоботОз : Flipperboobootosis
MediaInfo
Общее
Уникальный идентификатор : 182436555042638072611452495366772871030 (0x8940009F4D2982C6AC7E3408ADADCF76)
Полное имя : D:\Im\Микки Маус\Mickey Mouse.2013.WEB-DL 720p\01. No Service.2013.WEB-DL 720p.mkv
Формат : Matroska
Версия формата : Version 4 / Version 2
Размер файла : 99,1 Мбайт
Продолжительность : 3 м. 33 с.
Общий поток : 3887 Кбит/сек
Название фильма : 01. No Service.2013.WEB-DL 720p -Azureus-
Дата кодирования : UTC 2014-05-26 08:40:43
Программа кодирования : mkvmerge v6.8.0 ('Theme for Great Cities') 32bit built on Mar 2 2014 21:27:07
Библиотека кодирования : libebml v1.3.0 + libmatroska v1.4.1
Видео
Идентификатор : 1
Формат : AVC
Формат/Информация : Advanced Video Codec
Профиль формата : High@L3.1
Параметр CABAC формата : Нет
Параметр ReFrames формата : 2 кадра
Идентификатор кодека : V_MPEG4/ISO/AVC
Продолжительность : 3 м. 33 с.
Битрейт : 3234 Кбит/сек
Ширина : 1280 пикселей
Высота : 720 пикселей
Соотношение сторон : 16:9
Режим частоты кадров : Постоянный
Частота кадров : 23,976 кадра/сек
Цветовое пространство : YUV
Субдискретизация насыщенности : 4:2:0
Битовая глубина : 8 бит
Тип развёртки : Прогрессивная
Бит/(Пиксели*Кадры) : 0.146
Размер потока : 82,4 Мбайт (83%)
Язык : English
Default : Да
Forced : Нет
Основные цвета : BT.709
Характеристики трансфера : BT.709
Коэффициенты матрицы : BT.709
Аудио #1
Идентификатор : 2
Формат : AC-3
Формат/Информация : Audio Coding 3
Расширение режима : CM (complete main)
Параметр Endianness формата : Big
Идентификатор кодека : A_AC3
Продолжительность : 3 м. 33 с.
Вид битрейта : Постоянный
Битрейт : 192 Кбит/сек
Каналы : 2 канала
Расположение каналов : Front: L R
Частота : 48,0 КГц
Битовая глубина : 16 бит
Метод сжатия : С потерями
Размер потока : 4,90 Мбайт (5%)
Заголовок : DUB
Язык : Russian
Default : Да
Forced : Нет
Аудио #2
Идентификатор : 3
Формат : AC-3
Формат/Информация : Audio Coding 3
Расширение режима : CM (complete main)
Параметр Endianness формата : Big
Идентификатор кодека : A_AC3
Продолжительность : 3 м. 33 с.
Вид битрейта : Постоянный
Битрейт : 384 Кбит/сек
Каналы : 6 каналов
Расположение каналов : Front: L C R, Side: L R, LFE
Частота : 48,0 КГц
Битовая глубина : 16 бит
Метод сжатия : С потерями
Размер потока : 9,79 Мбайт (10%)
Заголовок : ENG
Язык : English
Default : Нет
Forced : Нет
____________________________________________
Стою на раздаче до 5 дней.
Просьба скачавшим как можно дольше не покидать раздачу!
ВСЕМ ПРИЯТНОГО ПРОСМОТРА!_________________________________________

[Цитировать]

Топик был перенесен из форума Том и Джерри / Tom & Jerry в форум Зарубежные мультфильмы
Prizr@k



Показать сообщения:    

Текущее время: 07-Дек 19:30

Часовой пояс: UTC + 3


Вы не можете начинать темы
Вы не можете отвечать на сообщения
Вы не можете редактировать свои сообщения
Вы не можете удалять свои сообщения
Вы не можете голосовать в опросах
Вы не можете прикреплять файлы к сообщениям
Вы не можете скачивать файлы

!ВНИМАНИЕ!
Сайт не предоставляет электронные версии произведений, а занимается лишь коллекционированием и каталогизацией ссылок, присылаемых и публикуемых на форуме нашими читателями. Если вы являетесь правообладателем какого-либо представленного материала и не желаете, чтобы ссылка на него находилась в нашем каталоге, свяжитесь с нами, и мы незамедлительно удалим ее. Файлы для обмена на трекере предоставлены пользователями сайта, и администрация не несет ответственности за их содержание. Просьба не заливать файлы, защищенные авторскими правами, а также файлы нелегального содержания!