[ Сегодня идет свободное скачивание без начисления Download ]


Статистика раздачи
Нет
 
   
 
Top  
 
 
Злые птички
Angry Birds Toons
Год выпуска: 2013-2014
Страна: Финляндия
Жанр: комедия, приключение
Продолжительность: 00:02:45 х 52
Перевод: не требуется
субтитры: отсутствуют-Режиссёр: Ким Хельминен : Kim Helminen-Описание: Жизнь злых птичек не проста на острове Свиней. Красный и его бесстрашные пернатых товарищи: Чак, Матильда, Бомба, Голубые и Теренс, должны объединиться, чтобы защитить свои яйца.-
-- Спасибо xfiles, за предоставление исходного материала!-Качество: WEB-DL 720p
Формат: MKV
Видео кодек: AVC
Аудио кодек: АС3
Видео: 1280x718, 23,976 fps, ~3 353 kbps avg, 0.152 bit/pixel
Аудио: 48 kHz, AC3 Dolby Digital, 3/2 (L,C,R,l,r) + LFE ch, ~384 kbps

список серий

01. Время Чака / Chuck Time
02. Где моя корона? / Where's my crown
03. Цельнометаллический Чак / Full Metal Chuck
04. Ещё один день рождения / Another birthday
05. Звуки из яиц / Egg sounds
06. Свиньи таланты / Pig talent
07. Гордон блю! / Cordon bleugh!
08. Чисто голубой? / True.Blue ?
09. Делай как я сказала! / Do as I Say !
10. Выходной / Off Duty
11. Рогатка для новичков / Slingshot 101
12. Громовой Чак / Thunder Chuck
13. Сад с Теренсом / Gardening with Terence
14. Растяпы на верёвке / Dopeys on a Rope
15. Троянское яйцо / Trojan Egg
16. Внимательный осмотр / Double Take
17. Свиньи для Краш-Теста / Crash Test Piggies
18. Беспечный дурак / Slappy Go Lucky
19. Тише едешь-дальше будешь! / Sneezy Does It
20. Беги, Чак,беги / Run Chuck Run
21. Гипносвиньи / Hypno Pigs
22. Яйцо не дома / Eggs Day Out
23. Воротокрушитель / Gate Crasher
24. Жареная свинья / Hog Roast
25. Птица, которая кричала: "Свинья" / The Bird That Cried : "Pig"
26. Побег из Свиношенка / HamShank Redemption
27. Суп из зелёных свиней / Green Pig Soup
28. День нападения / Catch Of The Day
29. Спокойной ночи, Теренс / Nighty Night Terence
30. Свиной парик / Piggy Wig
31. Зелье освинения / Pig Plot Potion
32. Королевский зуб / Tooth Royal
33. Ночь живой свинины / Night Of The Living Pork
34. Король замка / King Of The Castle
35. Любовь в воздухе / Love is in the Air
36. Поджигатель / Fired Up
37. Кукурузный конфликт / Clash Of Corns
38. Лучший друг свиньи / A Pig's Best Friends
39. Соня на лесопилке / Slumber Mill
40. Звенящие вопли / Jingle Yells
41. Эль Свинадор / El Porkador
42. Икота / Hiccups
43. Эффект бабочки / The Butterfly Effect
44. Хэмбо / Hambo
45. Птичий грипп / Bird Flu
46. Свиньи из глубин / Piggies From The Deep
47. О, гном! / Oh, Gnome!
48. Дело было в кустах / Shrub It In
49. Перемирие / The Truce
50. Оперная операция / Operation Opera
51. Выгнали / Chucked Out
52. Пробуждение Бомба / Bomb's Awake

MediaInfo

Общее
Уникальный идентификатор : 185846113649146646048147211911538432280 (0x8BD0A8D71F04B85694DD8F6382745918)
Полное имя : D:\Im\Злые птички\Angry Birds Toons.s1.e1-52.2013-2014.WEB-DL 720p [-Azureus-]\01. Chuck Time.mkv
Формат : Matroska
Версия формата : Version 4 / Version 2
Размер файла : 76,5 Мбайт
Продолжительность : 2 м. 48 с.
Общий поток : 3813 Кбит/сек
Дата кодирования : UTC 2014-04-12 20:50:21
Программа кодирования : mkvmerge v6.8.0 ('Theme for Great Cities') 32bit built on Mar 2 2014 21:27:07
Библиотека кодирования : libebml v1.3.0 + libmatroska v1.4.1
Видео
Идентификатор : 1
Формат : AVC
Формат/Информация : Advanced Video Codec
Профиль формата : [email protected]
Параметр CABAC формата : Нет
Параметр ReFrames формата : 2 кадра
Идентификатор кодека : V_MPEG4/ISO/AVC
Продолжительность : 2 м. 48 с.
Битрейт : 3353 Кбит/сек
Ширина : 1280 пикселей
Высота : 718 пикселей
Соотношение сторон : 16:9
Режим частоты кадров : Постоянный
Частота кадров : 23,976 кадра/сек
Цветовое пространство : YUV
Субдискретизация насыщенности : 4:2:0
Битовая глубина : 8 бит
Тип развёртки : Прогрессивная
Бит/(Пиксели*Кадры) : 0.152
Размер потока : 67,2 Мбайт (88%)
Язык : English
Default : Да
Forced : Нет
Основные цвета : BT.709
Характеристики трансфера : BT.709
Коэффициенты матрицы : BT.709
Аудио
Идентификатор : 2
Формат : AC-3
Формат/Информация : Audio Coding 3
Расширение режима : CM (complete main)
Параметр Endianness формата : Big
Идентификатор кодека : A_AC3
Продолжительность : 2 м. 48 с.
Вид битрейта : Постоянный
Битрейт : 384 Кбит/сек
Каналы : 6 каналов
Расположение каналов : Front: L C R, Side: L R, LFE
Частота : 48,0 КГц
Битовая глубина : 16 бит
Метод сжатия : С потерями
Размер потока : 7,70 Мбайт (10%)
Язык : English
Default : Да
Forced : Нет
____________________________________________
Стою на раздаче до 5 дней.
Просьба скачавшим как можно дольше не покидать раздачу!
ВСЕМ ПРИЯТНОГО ПРОСМОТРА!_________________________________________

[Цитировать]



Показать сообщения:    

Текущее время: 04-Дек 17:19

Часовой пояс: UTC + 3


Вы не можете начинать темы
Вы не можете отвечать на сообщения
Вы не можете редактировать свои сообщения
Вы не можете удалять свои сообщения
Вы не можете голосовать в опросах
Вы не можете прикреплять файлы к сообщениям
Вы не можете скачивать файлы

!ВНИМАНИЕ!
Сайт не предоставляет электронные версии произведений, а занимается лишь коллекционированием и каталогизацией ссылок, присылаемых и публикуемых на форуме нашими читателями. Если вы являетесь правообладателем какого-либо представленного материала и не желаете, чтобы ссылка на него находилась в нашем каталоге, свяжитесь с нами, и мы незамедлительно удалим ее. Файлы для обмена на трекере предоставлены пользователями сайта, и администрация не несет ответственности за их содержание. Просьба не заливать файлы, защищенные авторскими правами, а также файлы нелегального содержания!