[ Сегодня идет свободное скачивание без начисления Download ]


Статистика раздачи
Нет
 
   
 
Top  
 
 
-Отель «Гранд Будапешт» / The Grand Budapest Hotel (2014) BDRemux- Год выпуска: 2014
Производство: Великобритания, Германия / American Empirical Pictures
Жанр: Комедия, детектив, приключения, криминал
Описание фильма:
Фильм рассказывает об увлекательных приключениях легендарного консьержа Густава и его юного друга, портье Зеро Мустафы. Сотрудники гостиницы становятся свидетелями кражи и поисков бесценных картин эпохи Возрождения, борьбы за огромное состояние богатой семьи и… драматических изменений в Европе между двумя кровопролитными войнами XX века.
Режиссер: Уэс Андерсон / Wes Anderson
Продюсер: Уэс Андерсон, Джереми Доусон, Стивен Рейлс
Актеры: Рэйф Файнс, Тони Револори, Сирша Ронан, Эдриан Броуди, Уиллем Дефо, Ф. Мюррэй Абрахам, Джуд Лоу, Эдвард Нортон, Джефф Голдблюм, Харви Кейтель
Язык: Русский, английский
Перевод: Дублированный [лицензия]
Вид субтитров: Вшитые отключаемые
Язык субтитров: Русский, украинский, английский (full, SDH)

Дата мировой премьеры: 6 февраля 2014
Дата российской премьеры: 13 марта 2014, «Двадцатый Век Фокс СНГ»
Дата выхода DVD релиза: 10 июля 2014, «Двадцатый Век Фокс СНГ»
Дата выхода Blu-Ray релиза: 10 июля 2014, «Двадцатый Век Фокс СНГ»
Рейтинг MPAA: R
Возраст: 16+
Продолжительность: 01:39:55
Качество видео: BDRemux
Видео: MPEG-4 AVC/H.264, 1920x1080, ~22181 kbps, 0.467 bit/pixel, 23.976 fps
Аудио 1: DTS 5.1, 768 kbps, 48 KHz, 24-bit [Русский - дублированный «Blu-Ray CEE»]
Аудио 2: AC3 5.1, 640 kbps, 48 kHz, 16-bit [Русский - дублированный «Blu-Ray CEE»]
Аудио 3: DTS-HD MA 5.1, 3312 kbps, 48 kHz, 24-bit [Английский - оригинал]

Отчёт MediaInfo

Полное имя : D:\Отель.Гранд.Будапешт-The.Grand.Budapest.Hotel.(2014).BDRemux.[1080p].mkv
Формат : Matroska
Версия формата : Version 2
Размер файла : 18,7 Гбайт
Продолжительность : 1 ч. 39 м.
Режим общего битрейта : Переменный
Общий поток : 26,7 Мбит/сек
Название фильма : The Grand Budapest Hotel (2014) / Lelya_K for NNM-Club
Дата кодирования : UTC 2014-06-06 08:15:37
Программа кодирования : mkvmerge v5.7.0 ('The Whirlwind') built on Aug 7 2012 14:11:40
Библиотека кодирования : libebml v1.2.3 + libmatroska v1.3.0
Attachment : Yes
Видео
Идентификатор : 1
Формат : AVC
Формат/Информация : Advanced Video Codec
Профиль формата : [email protected]
Параметр CABAC формата : Да
Параметр ReFrames формата : 4 кадра
Параметр GOP формата : M=3, N=12
Идентификатор кодека : V_MPEG4/ISO/AVC
Продолжительность : 1 ч. 39 м.
Вид битрейта : Переменный
Битрейт : 23,2 Мбит/сек
Максимальный битрейт : 33,0 Мбит/сек
Ширина : 1920 пикселей
Высота : 1080 пикселей
Соотношение сторон : 16:9
Режим частоты кадров : Постоянный
Частота кадров : 23,976 кадра/сек
Цветовое пространство : YUV
Субдискретизация насыщенности : 4:2:0
Битовая глубина : 8 бит
Тип развёртки : Прогрессивная
Бит/(Пиксели*Кадры) : 0.467
Размер потока : 16,2 Гбайт (87%)
Заголовок : Отель.Гранд.Будапешт-The.Grand.Budapest.Hotel.(2014).BDRemux.[1080p]
Язык : English
Default : Да
Forced : Нет
Аудио #1
Идентификатор : 2
Формат : DTS
Формат/Информация : Digital Theater Systems
Идентификатор кодека : A_DTS
Продолжительность : 1 ч. 39 м.
Вид битрейта : Постоянный
Битрейт : 755 Кбит/сек
Каналы : 6 каналов
Расположение каналов : Front: L C R, Side: L R, LFE
Частота : 48,0 КГц
Битовая глубина : 24 бит
Метод сжатия : С потерями
Размер потока : 539 Мбайт (3%)
Заголовок : DTS 5.1 / 768 kbps / Dub (Blu-Ray CEE)
Язык : Russian
Default : Да
Forced : Нет
Аудио #2
Идентификатор : 3
Формат : AC-3
Формат/Информация : Audio Coding 3
Расширение режима : CM (complete main)
Параметр Endianness формата : Big
Идентификатор кодека : A_AC3
Продолжительность : 1 ч. 39 м.
Вид битрейта : Постоянный
Битрейт : 640 Кбит/сек
Каналы : 6 каналов
Расположение каналов : Front: L C R, Side: L R, LFE
Частота : 48,0 КГц
Битовая глубина : 16 бит
Метод сжатия : С потерями
Размер потока : 457 Мбайт (2%)
Заголовок : AC3 5.1 / 640 kbps / Dub (Blu-Ray CEE)
Язык : Russian
Default : Нет
Forced : Нет
Аудио #3
Идентификатор : 4
Формат : DTS
Формат/Информация : Digital Theater Systems
Профиль формата : MA / Core
Идентификатор кодека : A_DTS
Продолжительность : 1 ч. 39 м.
Вид битрейта : Переменный
Битрейт : 1561 Кбит/сек / 1510 Кбит/сек
Каналы : 6 каналов
Расположение каналов : Front: L C R, Side: L R, LFE
Частота : 48,0 КГц
Битовая глубина : 24 бит
Метод сжатия : Без потерь / Lossy
Заголовок : DTS-HD MA 5.1 / 3312 kbps / Original
Язык : English
Default : Нет
Forced : Нет
Текст #1
Идентификатор : 5
Формат : UTF-8
Идентификатор кодека : S_TEXT/UTF8
Идентификатор кодека/Информация : UTF-8 Plain Text
Заголовок : Full
Язык : Russian
Default : Нет
Forced : Нет
Текст #2
Идентификатор : 6
Формат : UTF-8
Идентификатор кодека : S_TEXT/UTF8
Идентификатор кодека/Информация : UTF-8 Plain Text
Заголовок : Full
Язык : Ukrainian
Default : Нет
Forced : Нет
Текст #3
Идентификатор : 7
Формат : UTF-8
Идентификатор кодека : S_TEXT/UTF8
Идентификатор кодека/Информация : UTF-8 Plain Text
Заголовок : Full
Язык : English
Default : Нет
Forced : Нет
Текст #4
Идентификатор : 8
Формат : UTF-8
Идентификатор кодека : S_TEXT/UTF8
Идентификатор кодека/Информация : UTF-8 Plain Text
Заголовок : SDH
Язык : English
Default : Нет
Forced : Нет
Меню
00:00:00.000 : en:Chapter 1
00:02:55.883 : en:Chapter 2
00:06:00.150 : en:Chapter 3
00:08:28.132 : en:Chapter 4
00:11:32.607 : en:Chapter 5
00:14:17.189 : en:Chapter 6
00:17:39.599 : en:Chapter 7
00:19:56.236 : en:Chapter 8
00:23:08.803 : en:Chapter 9
00:25:35.407 : en:Chapter 10
00:29:30.310 : en:Chapter 11
00:32:11.762 : en:Chapter 12
00:34:16.262 : en:Chapter 13
00:35:51.649 : en:Chapter 14
00:38:58.043 : en:Chapter 15
00:40:18.832 : en:Chapter 16
00:41:43.792 : en:Chapter 17
00:45:22.761 : en:Chapter 18
00:48:22.649 : en:Chapter 19
00:51:53.026 : en:Chapter 20
00:55:18.273 : en:Chapter 21
00:59:08.544 : en:Chapter 22
01:04:17.019 : en:Chapter 23
01:08:34.985 : en:Chapter 24
01:12:20.460 : en:Chapter 25
01:16:18.907 : en:Chapter 26
01:17:41.488 : en:Chapter 27
01:20:47.800 : en:Chapter 28
01:24:02.370 : en:Chapter 29
01:27:08.555 : en:Chapter 30
01:30:55.908 : en:Chapter 31
01:32:57.363 : en:Chapter 32
Скриншоты:

[Цитировать]



Показать сообщения:    

Текущее время: 05-Дек 17:31

Часовой пояс: UTC + 3


Вы не можете начинать темы
Вы не можете отвечать на сообщения
Вы не можете редактировать свои сообщения
Вы не можете удалять свои сообщения
Вы не можете голосовать в опросах
Вы не можете прикреплять файлы к сообщениям
Вы не можете скачивать файлы

!ВНИМАНИЕ!
Сайт не предоставляет электронные версии произведений, а занимается лишь коллекционированием и каталогизацией ссылок, присылаемых и публикуемых на форуме нашими читателями. Если вы являетесь правообладателем какого-либо представленного материала и не желаете, чтобы ссылка на него находилась в нашем каталоге, свяжитесь с нами, и мы незамедлительно удалим ее. Файлы для обмена на трекере предоставлены пользователями сайта, и администрация не несет ответственности за их содержание. Просьба не заливать файлы, защищенные авторскими правами, а также файлы нелегального содержания!