[ Сегодня идет свободное скачивание без начисления Download ]


Статистика раздачи
Нет
 
   
 
Top  
 
 
-300 спартанцев: Расцвет империи / 300: Rise of an Empire (2014) BDRemux
«Смерти вопреки»
- Год выпуска: 2014
Производство: США / Warner Bros. Pictures
Жанр: Фэнтези, боевик, драма, военный
Описание фильма:
После победы над царем Леонидом персидская армия во главе с Ксерксом движется на юг. На её пути оказывается флот Афин под руководством адмирала Фемистокла. Силы противников не равны, и Фемистокл вынужден вступить в союз с заклятым врагом афинского государства Спартой. Только объединившись у враждующих полисов-государств есть шанс что-то противопоставить могущественному Ксерксу.
Режиссер: Ноам Мурро / Noam Murro
Продюсер: Марк Кантон, Берни Голдманн, Джанни Нуннари
Актеры: Салливан Степлтон, Ева Грин, Джек О’Коннелл, Каллэн Мулвей, Ганс Мэтисон, Родриго Санторо, Лина Хиди, Дэвид Уэнэм, Эндрю Тирнан, Эндрю Плевин
Язык: Русский, английский
Перевод: Дублированный [iTunes]
Вид субтитров: Вшитые отключаемые
Язык субтитров: Русский (forced, full), украинский (forced, full), английский (full, SDH)

Дата мировой премьеры: 5 марта 2014
Дата российской премьеры: 6 марта 2014, «Каро-Премьер»
Дата выхода DVD релиза: 3 июля 2014, «CP Дистрибуция»
Дата выхода Blu-Ray релиза: 3 июля 2014, «CP Дистрибуция»
Рейтинг MPAA: R
Возраст: 16+
Продолжительность: 01:42:35
Качество видео: BDRemux
Видео: MPEG-4 AVC/H.264, 1920x1080, ~27513 kbps, 0.620 bit/pixel, 23.976 fps
Аудио 1: AC3 5.1, 384 kbps, 48 KHz, 16-bit [Русский - дублированный]
Аудио 2: AC3 2.0, 192 kbps, 48 kHz, 16-bit [Украинский - дублированный]
Аудио 3: DTS-HD MA 7.1, 5577 kbps, 48 kHz, 24-bit [Английский - оригинал]

Отчёт MediaInfo

Полное имя : D:\300.спартанцев.Расцвет.империи-300.Rise.of.an.Empire.(2014).BDRemux.[1080p].mkv
Формат : Matroska
Версия формата : Version 2
Размер файла : 24,1 Гбайт
Продолжительность : 1 ч. 42 м.
Режим общего битрейта : Переменный
Общий поток : 33,7 Мбит/сек
Название фильма : 300: Rise of an Empire (2014) / Lelya_K for NNM-Club
Дата кодирования : UTC 2014-06-05 14:14:39
Программа кодирования : mkvmerge v5.7.0 ('The Whirlwind') built on Aug 7 2012 14:11:40
Библиотека кодирования : libebml v1.2.3 + libmatroska v1.3.0
Attachment : Yes
Видео
Идентификатор : 1
Формат : AVC
Формат/Информация : Advanced Video Codec
Профиль формата : High@L4.1
Параметр CABAC формата : Да
Параметр ReFrames формата : 2 кадра
Параметр GOP формата : M=1, N=10
Идентификатор кодека : V_MPEG4/ISO/AVC
Продолжительность : 1 ч. 42 м.
Вид битрейта : Переменный
Битрейт : 30,8 Мбит/сек
Ширина : 1920 пикселей
Высота : 1080 пикселей
Соотношение сторон : 16:9
Режим частоты кадров : Постоянный
Частота кадров : 23,976 кадра/сек
Цветовое пространство : YUV
Субдискретизация насыщенности : 4:2:0
Битовая глубина : 8 бит
Тип развёртки : Прогрессивная
Бит/(Пиксели*Кадры) : 0.620
Размер потока : 22,1 Гбайт (92%)
Заголовок : 300.спартанцев.Расцвет.империи-300.Rise.of.an.Empire.(2014).BDRemux.[1080p]
Язык : English
Default : Да
Forced : Нет
Аудио #1
Идентификатор : 2
Формат : AC-3
Формат/Информация : Audio Coding 3
Расширение режима : CM (complete main)
Параметр Endianness формата : Big
Идентификатор кодека : A_AC3
Продолжительность : 1 ч. 42 м.
Вид битрейта : Постоянный
Битрейт : 384 Кбит/сек
Каналы : 6 каналов
Расположение каналов : Front: L C R, Side: L R, LFE
Частота : 48,0 КГц
Битовая глубина : 16 бит
Метод сжатия : С потерями
Размер потока : 282 Мбайт (1%)
Заголовок : AC3 5.1 / 384 kbps / Dub (iTunes)
Язык : Russian
Default : Да
Forced : Нет
Аудио #2
Идентификатор : 3
Формат : AC-3
Формат/Информация : Audio Coding 3
Расширение режима : CM (complete main)
Параметр Endianness формата : Big
Идентификатор кодека : A_AC3
Продолжительность : 1 ч. 42 м.
Вид битрейта : Постоянный
Битрейт : 192 Кбит/сек
Каналы : 2 канала
Расположение каналов : Front: L R
Частота : 48,0 КГц
Битовая глубина : 16 бит
Метод сжатия : С потерями
Размер потока : 141 Мбайт (1%)
Заголовок : AC3 2.0 / 192 kbps / Dub (iTunes)
Язык : Ukrainian
Default : Нет
Forced : Нет
Аудио #3
Идентификатор : 4
Формат : DTS
Формат/Информация : Digital Theater Systems
Профиль формата : MA / Core
Идентификатор кодека : A_DTS
Продолжительность : 1 ч. 42 м.
Вид битрейта : Переменный
Битрейт : 1597 Кбит/сек / 1510 Кбит/сек
Каналы : 8 каналов / 6 каналов
Расположение каналов : Front: L C R, Side: L R, Back: L R, LFE / Front: L C R, Side: L R, LFE
Частота : 48,0 КГц
Битовая глубина : 24 бит
Метод сжатия : Без потерь / Lossy
Заголовок : DTS-HD MA 7.1 / 5577 kbps / Original
Язык : English
Default : Нет
Forced : Нет
Текст #1
Идентификатор : 5
Формат : UTF-8
Идентификатор кодека : S_TEXT/UTF8
Идентификатор кодека/Информация : UTF-8 Plain Text
Заголовок : Forced
Язык : Russian
Default : Да
Forced : Нет
Текст #2
Идентификатор : 6
Формат : UTF-8
Идентификатор кодека : S_TEXT/UTF8
Идентификатор кодека/Информация : UTF-8 Plain Text
Заголовок : Full
Язык : Russian
Default : Нет
Forced : Нет
Текст #3
Идентификатор : 7
Формат : UTF-8
Идентификатор кодека : S_TEXT/UTF8
Идентификатор кодека/Информация : UTF-8 Plain Text
Заголовок : Forced
Язык : Ukrainian
Default : Нет
Forced : Нет
Текст #4
Идентификатор : 8
Формат : UTF-8
Идентификатор кодека : S_TEXT/UTF8
Идентификатор кодека/Информация : UTF-8 Plain Text
Заголовок : Full
Язык : Ukrainian
Default : Нет
Forced : Нет
Текст #5
Идентификатор : 9
Формат : UTF-8
Идентификатор кодека : S_TEXT/UTF8
Идентификатор кодека/Информация : UTF-8 Plain Text
Заголовок : Full
Язык : English
Default : Нет
Forced : Нет
Текст #6
Идентификатор : 10
Формат : UTF-8
Идентификатор кодека : S_TEXT/UTF8
Идентификатор кодека/Информация : UTF-8 Plain Text
Заголовок : SDH
Язык : English
Default : Нет
Forced : Нет
Меню
00:00:00.000 : en:Chapter 1
00:10:26.375 : en:Chapter 2
00:20:54.628 : en:Chapter 3
00:31:15.290 : en:Chapter 4
00:40:58.497 : en:Chapter 5
00:50:50.714 : en:Chapter 6
01:00:05.435 : en:Chapter 7
01:09:51.812 : en:Chapter 8
01:19:51.244 : en:Chapter 9
01:31:07.295 : en:Chapter 10
01:33:57.131 : en:Chapter 11
Скриншоты:

[Цитировать]



Показать сообщения:    

Текущее время: 09-Дек 00:56

Часовой пояс: UTC + 3


Вы не можете начинать темы
Вы не можете отвечать на сообщения
Вы не можете редактировать свои сообщения
Вы не можете удалять свои сообщения
Вы не можете голосовать в опросах
Вы не можете прикреплять файлы к сообщениям
Вы не можете скачивать файлы

!ВНИМАНИЕ!
Сайт не предоставляет электронные версии произведений, а занимается лишь коллекционированием и каталогизацией ссылок, присылаемых и публикуемых на форуме нашими читателями. Если вы являетесь правообладателем какого-либо представленного материала и не желаете, чтобы ссылка на него находилась в нашем каталоге, свяжитесь с нами, и мы незамедлительно удалим ее. Файлы для обмена на трекере предоставлены пользователями сайта, и администрация не несет ответственности за их содержание. Просьба не заливать файлы, защищенные авторскими правами, а также файлы нелегального содержания!