[ Сегодня идет свободное скачивание без начисления Download ]


Статистика раздачи
Нет
 
   
 
Top  
 
 
-Я - русский солдат (1995) TVRip- Русское название: Я - русский солдат
Год выпуска: 1995
Жанр: Военный, Драма
Выпущено: Россия, Роскомкино
Описание фильма:
Киновариант повести Бориса Васильева «В списках не значился…»
21 июня 1941 года за несколько часов до войны выпускник пограничного училища лейтенант Коля Плужников, бывший московский школьник, попадает в приграничный Брест и в одном из ресторанчиков знакомится с поварихой командирской столовой. Коля и его ночная попутчица Мирра неторопливо возвращаются в часть по улочкам Бреста. А утром лейтенант Николай Плужников берет на себя командование гарнизоном и принимает первый бой с фашистами.
Режиссер: Андрей Малюков
Актеры: Дмитрий Медведев, Милена Цховребова-Агранович, Александр Лырчиков, Дмитрий Ошеров, Алексей Булдаков, Наталья Высоцкая, Петр Юрченков, Альберт Арнтгольц, Игорь Гневашев, Борис Миронюк
Продолжительность: 01:34:20
Качество видео: TVRip

Видеокодек: Xvid
Битрейт видео: ~1879 kb/s
Размер кадра: 720 x 544
Аудиокодек: AC3 2.0
Битрейт аудио: 192 kb/s

MediaInfo

Общее
Полное имя : Ja.Russkij.Soldat.1995.XviD.TVRip.avi
Формат : AVI
Формат/Информация : Audio Video Interleave
Размер файла : 1,37 Гбайт
Продолжительность : 1 ч. 34 м.
Общий поток : 2076 Кбит/сек
Программа кодирования : VirtualDubMod 1.5.4.1 (build 2178/release)
Библиотека кодирования : VirtualDubMod build 2178/release
Видео
Идентификатор : 0
Формат : MPEG-4 Visual
Профиль формата : Advanced Simple@L5
Параметр BVOP формата : Нет
Параметр QPel формата : Нет
Параметр GMC формата : Без точки перехода
Параметр матрицы формата : Выборочная
Идентификатор кодека : XVID
Идентификатор кодека/Подсказка : XviD
Продолжительность : 1 ч. 34 м.
Битрейт : 1877 Кбит/сек
Ширина : 720 пикселей
Высота : 544 пикселя
Соотношение сторон : 4:3
Частота кадров : 25,000 кадров/сек
Цветовое пространство : YUV
Субдискретизация насыщенности : 4:2:0
Битовая глубина : 8 бит
Тип развёртки : Прогрессивная
Метод сжатия : С потерями
Бит/(Пиксели*Кадры) : 0.192
Размер потока : 1,24 Гбайт (90%)
Библиотека кодирования : XviD 1.2.1 (UTC 2008-12-04)
Аудио
Идентификатор : 1
Формат : AC-3
Формат/Информация : Audio Coding 3
Расширение режима : CM (complete main)
Параметр Endianness формата : Big
Идентификатор кодека : 2000
Продолжительность : 1 ч. 34 м.
Вид битрейта : Постоянный
Битрейт : 192 Кбит/сек
Каналы : 2 канала
Расположение каналов : Front: L R
Частота : 48,0 КГц
Битовая глубина : 16 бит
Метод сжатия : С потерями
Задержка видео : 24 мс.
Размер потока : 130 Мбайт (9%)
Выравнивание : Разделение по промежуткам
Продолжительность промежутка : 96 мс. (2,40 видеокадра)
Время предзагрузки промежутка : 96 мс.
Скриншоты:

Время раздачи: С 13:00 до 21:00 (до 5 скачавших)

[Цитировать]



Показать сообщения:    

Текущее время: 03-Дек 01:13

Часовой пояс: UTC + 3


Вы не можете начинать темы
Вы не можете отвечать на сообщения
Вы не можете редактировать свои сообщения
Вы не можете удалять свои сообщения
Вы не можете голосовать в опросах
Вы не можете прикреплять файлы к сообщениям
Вы не можете скачивать файлы

!ВНИМАНИЕ!
Сайт не предоставляет электронные версии произведений, а занимается лишь коллекционированием и каталогизацией ссылок, присылаемых и публикуемых на форуме нашими читателями. Если вы являетесь правообладателем какого-либо представленного материала и не желаете, чтобы ссылка на него находилась в нашем каталоге, свяжитесь с нами, и мы незамедлительно удалим ее. Файлы для обмена на трекере предоставлены пользователями сайта, и администрация не несет ответственности за их содержание. Просьба не заливать файлы, защищенные авторскими правами, а также файлы нелегального содержания!