[ Сегодня идет свободное скачивание без начисления Download ]


Статистика раздачи
Нет
 
   
 
Top  
 
 
Чужое лицо
Год выпуска: 2012
Производство: кинокомпания "БФГ-Медиа-Продак
Жанр: мелодрама, шпионский фильм
Продолжительность: 8 x ~00:44:00
Субтитры: нет
Режиссёр: Сергей Басин
В ролях: Александр Домогаров, Дана Агишева, Олег Штефанко, Александр Пашутин, Александр Рапопорт, Татьяна Колганова, Валерий Курденков, Катерина Шпица, Владислав Резник, Александр Загрудный
Описание: По одноименному роману Эдуарда Тополя.
Первая экранизация одноименного бестселлера всемирно известного писателя Эдуарда Тополя. На фоне последней декады холодной войны развивается трогательная история любви русского эмигранта Романа Ставинского и малоизвестной голливудской актрисы Вирджинии Парт. В жестоком противостоянии разведок мировых супердержав - США и СССР - им предстоит прожить отрезок чужой жизни, чтобы спасти любовь и обрести потерянное счастье.
"Изданный в 1983 году в США роман Эдуарда Тополя произвел эффект разорвавшейся бомбы, ведь в нем было все: и борьба спецслужб двух великих держав - СССР и США, - и новейшие технические разработки, и невиданное по своему коварству и гениальности оружие массового поражения, и, главное, сильная и всепоглощающая любовь. Мы постарались сделать сценарий максимально приближенным к первоисточнику. Эдуард Тополь – замечательный автор, и нам не нужно было ничего придумывать. Он уже все написал, а нам оставалось только максимально гармонично перенести его произведение на экран", - рассказывают создатели картины.
1983 год. Подполковник Генштаба Сергей Юрышев (Александр Домогаров) после трагической гибели своего двенадцатилетнего сына решает эмигрировать в США. Через американского журналиста он выходит на связь с ЦРУ и предлагает взаимовыгодную сделку - спецслужбы переправят его за океан, где он сможет начать новую жизнь, а взамен Юрышев выдаст ЦРУ секретную информацию.
Агенты американской разведки, заинтересованные в информаторе такого уровня, решают найти среди русских эмигрантов человека, похожего по типажу на Юрышева, и совершить подмену. После долгих поисков они выходят на стоматолога Романа Ставинского (Александр Домогаров), мечтающего вернуться в СССР. Ставинскому делают пластическую операцию и знакомят с малоизвестной голливудской актрисой Виржинией Парт (Дана Агишева). Под видом супругов Вильямс, совершающих свадебное путешествие, они должны будут приехать в СССР, где Ставинский и Юрышев поменяются местами.
Таков был план. Однако безупречно продуманную операцию под кодовым названием "Чужое лицо" ставит под угрозу одно обстоятельство – деловые отношения Ставинского и Виржинии внезапно перерастают в бурный роман...
Качество: IPTVRip
Формат: AVI
Видео кодек: XviD
Аудио кодек: MP3
Видео: 720x400 (1.80:1), 25 fps, XviD build 50 ~1560 kbps avg, 0.22 bit/pixel
Аудио: 48 kHz, MPEG Layer 3, 2 ch, ~192.00 kbps avg

MI

General
Complete name : W:\ftp4\Videos\Chuzhoe.litso.(01.seriya.iz.08).2011.XviD.IPTVRip.files-x.avi
Format : AVI
Format/Info : Audio Video Interleave
File size : 550 MiB
Duration : 43mn 37s
Overall bit rate : 1 763 Kbps
Writing application : VirtualDubMod 1.5.10.3 | www.virtualdub-fr.org || (build 2550/release)
Writing library : VirtualDubMod build 2550/release
Video
ID : 0
Format : MPEG-4 Visual
Format profile : Advanced [email protected]
Format settings, BVOP : 1
Format settings, QPel : No
Format settings, GMC : No warppoints
Format settings, Matrix : Default (H.263)
Codec ID : XVID
Codec ID/Hint : XviD
Duration : 43mn 37s
Bit rate : 1 561 Kbps
Width : 720 pixels
Height : 400 pixels
Display aspect ratio : 16:9
Frame rate : 25.000 fps
Color space : YUV
Chroma subsampling : 4:2:0
Bit depth : 8 bits
Scan type : Progressive
Compression mode : Lossy
Bits/(Pixel*Frame) : 0.217
Stream size : 487 MiB (89%)
Writing library : XviD 1.2.1 (UTC 2008-12-04)
Audio
ID : 1
Format : MPEG Audio
Format version : Version 1
Format profile : Layer 3
Codec ID : 55
Codec ID/Hint : MP3
Duration : 43mn 37s
Bit rate mode : Constant
Bit rate : 192 Kbps
Channel(s) : 2 channels
Sampling rate : 48.0 KHz
Compression mode : Lossy
Stream size : 59.9 MiB (11%)
Alignment : Aligned on interleaves
Interleave, duration : 40 ms (1.00 video frame)
Interleave, preload duration : 504 ms
Writing library : LAME3.98r
Encoding settings : -m s -V 4 -q 2 -lowpass 18.6 -b 192

Скриншоты

Внимание! Раздача ведётся путём добавления новых серий!

Внимание! Раздача ведётся путём добавления новых серий
Внимание! Раздача ведётся путём добавления новых серий; при каждом добавлении создётся новый торрент.
Чтобы начать докачку новой серии, пользователям необходимо сделать следующее:
1) остановить скачивание
2) удалить старый торрент у себя из клиента (старые серии удалять не надо)
3) скачать новый торрент и запустить его у себя в клиенте вместо старого, при этом указать клиенту путь в старую папку куда и должно происходить скачивание новых серий.
Ваш клиент при этом должен произвести хеширование (проверку) старой папки (если не производит сам - помогите ему сделать это), и будет докачивать только те серии которых у вас ещё нет. Старые серии при этом не удаляются, а продолжают раздаваться!
Eсли вы уже удалили старые серии, то предотвратить повторную закачку старых серий можно, отжав галочку в соответствовавших местах при запуске нового торрента.
Реклама отсутствует
добавлена 07-08 серия

[Цитировать]



Показать сообщения:    

Текущее время: 06-Дек 22:56

Часовой пояс: UTC + 3


Вы не можете начинать темы
Вы не можете отвечать на сообщения
Вы не можете редактировать свои сообщения
Вы не можете удалять свои сообщения
Вы не можете голосовать в опросах
Вы не можете прикреплять файлы к сообщениям
Вы не можете скачивать файлы

!ВНИМАНИЕ!
Сайт не предоставляет электронные версии произведений, а занимается лишь коллекционированием и каталогизацией ссылок, присылаемых и публикуемых на форуме нашими читателями. Если вы являетесь правообладателем какого-либо представленного материала и не желаете, чтобы ссылка на него находилась в нашем каталоге, свяжитесь с нами, и мы незамедлительно удалим ее. Файлы для обмена на трекере предоставлены пользователями сайта, и администрация не несет ответственности за их содержание. Просьба не заливать файлы, защищенные авторскими правами, а также файлы нелегального содержания!